Ergebnis 1 bis 9 von 9
  1. #1
    New Member
    Points: 135, Level: 1
    Level completed: 85%, Points required for next Level: 15
    Overall activity: 0%
    Achievements:
    31 days registered100 Experience Points

    Registriert seit
    Nov 2012
    Beiträge
    6
    Points
    135
    Level
    1
    Danke
    0
    Thanked 0 Times in 0 Posts

    Question 47PFL7606K2 HD Media Renderer ?

    Moin Moin,

    ich habe auf meinem NAS (Synology) mehere HD Aufnahmen (ts), die ich auf dem Fernseher abspielen möchte.
    Leider lassen sich auf diesem ab nur "normale", also kein HD ts-Streams abspielen. Ist das generell nicht möglich oder mache ich etwas falsch?
    Über den externen Sat-Receivier ist das alles kein Problem....
    Ich würde nur gerne die DLNA Renderer Funktionalität nutzen und das ganze via Android steuern/auswählen...

    Danke & Gruss
    Lars

  2. #2
    Moderator
    Points: 5.677, Level: 22
    Level completed: 26%, Points required for next Level: 373
    Overall activity: 99,7%
    Achievements:
    OverdriveTagger Second Class1 year registered5000 Experience Points
    Avatar von Philips - Lucas
    Registriert seit
    Oct 2012
    Ort
    Germany
    Beiträge
    364
    Points
    5.677
    Level
    22
    Danke
    1
    Thanked 82 Times in 48 Posts
    Hallo Lars,

    Ich stark davon aus, dass deine .ts – Container Dateien mit MPEG4_AVC Videospuren in HD Auflösung bestückt sind.

    Diese Kombination wird von unserer aktuellen TV Geräten, leider nicht unterstützt. Bei SD Material im identischen Container - Format geht das. Sobald aber der TV erkennt, dass es sich bei der Kombination (.ts / MPEG4_AVC) von der Auflösung her um HD Videomaterial handelt, werden diese Datei nicht abgespielt.

    Um ganz sicher zu gehen, kannst du die betroffenen Dateien mittels „mediainfo“ auslesen und dann prüfen.

    http://mediainfo.sourceforge.net/de

    Gern kannst du das Resultat in diesem Thread posten und dann schauen wir uns das genau an.

    Gruß,
    Lucas
    TV Forum Moderator

  3. #3
    New Member
    Points: 135, Level: 1
    Level completed: 85%, Points required for next Level: 15
    Overall activity: 0%
    Achievements:
    31 days registered100 Experience Points

    Registriert seit
    Nov 2012
    Beiträge
    6
    Points
    135
    Level
    1
    Danke
    0
    Thanked 0 Times in 0 Posts
    Hallo Lucas,
    vielen Dank für Deine Antwort. Ich habe das mal gemacht und das Ergebnis angehängt. Ich kann da nicht erkennen, ob es sich um MPEG4 handelt.

    Klicke auf die Grafik für eine größere Ansicht

Name:	Unbenannt.jpg
Hits:	72
Größe:	150,8 KB
ID:	310

    Gruss Lars

  4. #4
    Superuser
    Points: 45.098, Level: 65
    Level completed: 66%, Points required for next Level: 452
    Overall activity: 100,0%
    Achievements:
    Recommendation First Class1 year registeredOverdrive25000 Experience PointsTagger First Class
    Awards:
    Posting Award

    Registriert seit
    Nov 2011
    Beiträge
    4.268
    Points
    45.098
    Level
    65
    Danke
    312
    Thanked 372 Times in 327 Posts
    Tachchen,

    schalte mal den "View" auf Textmodus und füge das Ergebnis hier als "Zitat" ein.

    Toengel@Alex

  5. #5
    New Member
    Points: 135, Level: 1
    Level completed: 85%, Points required for next Level: 15
    Overall activity: 0%
    Achievements:
    31 days registered100 Experience Points

    Registriert seit
    Nov 2012
    Beiträge
    6
    Points
    135
    Level
    1
    Danke
    0
    Thanked 0 Times in 0 Posts
    Ok, gemacht

    General
    ID : 1057 (0x421)
    Complete name : V:\movies\20120502 0320 - RTL HD - Inglourious Basterds.ts
    Format : MPEG-TS
    File size : 8.52 GiB
    Duration : 2h 44mn
    Overall bit rate mode : Variable
    Overall bit rate : 7 398 Kbps

    Video
    ID : 255 (0xFF)
    Menu ID : 61200 (0xEF10)
    Format : AVC
    Format/Info : Advanced Video Codec
    Format profile : High@L4.0
    Format settings, CABAC : Yes
    Format settings, ReFrames : 4 frames
    Codec ID : 27
    Duration : 2h 44mn
    Bit rate : 6 644 Kbps
    Width : 1 920 pixels
    Height : 1 080 pixels
    Display aspect ratio : 16:9
    Frame rate : 25.000 fps
    Standard : Component
    Color space : YUV
    Chroma subsampling : 4:2:0
    Bit depth : 8 bits
    Scan type : Interlaced
    Scan order : Top Field First
    Bits/(Pixel*Frame) : 0.128
    Stream size : 7.65 GiB (90%)
    Color primaries : BT.709
    Transfer characteristics : BT.709
    Matrix coefficients : BT.709

    Audio
    ID : 259 (0x103)
    Menu ID : 61200 (0xEF10)
    Format : AC-3
    Format/Info : Audio Coding 3
    Mode extension : CM (complete main)
    Format settings, Endianness : Big
    Codec ID : 6
    Duration : 2h 44mn
    Bit rate mode : Constant
    Bit rate : 384 Kbps
    Channel(s) : 6 channels
    Channel positions : Front: L C R, Side: L R, LFE
    Sampling rate : 48.0 KHz
    Bit depth : 16 bits
    Compression mode : Lossy
    Delay relative to video : -810ms
    Stream size : 453 MiB (5%)
    Language : German
    Language, more info : Clean effects

    Text
    ID : 32 (0x20)-100
    Menu ID : 61200 (0xEF10)
    Format : Teletext
    Language : German

    Menu
    ID : 96 (0x60)
    Menu ID : 61200 (0xEF10)
    Duration : 2h 44mn
    List : 32 (0x20) () / 255 (0xFF) (AVC) / 259 (0x103) (AC-3, German) / 261 (0x105) ()
    Language : / / German

  6. #6
    New Member
    Points: 135, Level: 1
    Level completed: 85%, Points required for next Level: 15
    Overall activity: 0%
    Achievements:
    31 days registered100 Experience Points

    Registriert seit
    Nov 2012
    Beiträge
    6
    Points
    135
    Level
    1
    Danke
    0
    Thanked 0 Times in 0 Posts
    Moin,
    ich hoffe das der Admin meine Beträge auch freigibt. Ich habe seid gestern 3 Versuche gemacht, das Ergebnis zu posten....

  7. #7
    New Member
    Points: 135, Level: 1
    Level completed: 85%, Points required for next Level: 15
    Overall activity: 0%
    Achievements:
    31 days registered100 Experience Points

    Registriert seit
    Nov 2012
    Beiträge
    6
    Points
    135
    Level
    1
    Danke
    0
    Thanked 0 Times in 0 Posts
    Video
    ID : 255 (0xFF)
    Menu ID : 61200 (0xEF10)
    Format : AVC
    Format/Info : Advanced Video Codec
    Format profile : High@L4.0
    Format settings, CABAC : Yes
    Format settings, ReFrames : 4 frames
    Codec ID : 27
    Duration : 2h 44mn
    Bit rate : 6 644 Kbps
    Width : 1 920 pixels
    Height : 1 080 pixels
    Display aspect ratio : 16:9
    Frame rate : 25.000 fps
    Standard : Component
    Color space : YUV
    Chroma subsampling : 4:2:0
    Bit depth : 8 bits
    Scan type : Interlaced
    Scan order : Top Field First
    Bits/(Pixel*Frame) : 0.128
    Stream size : 7.65 GiB (90%)
    Color primaries : BT.709
    Transfer characteristics : BT.709
    Matrix coefficients : BT.709

  8. #8
    Platinum Member
    Points: 2.920, Level: 15
    Level completed: 57%, Points required for next Level: 130
    Overall activity: 6,0%
    Achievements:
    1 year registered1000 Experience PointsOverdrive

    Registriert seit
    Nov 2011
    Ort
    Deutschland
    Beiträge
    570
    Points
    2.920
    Level
    15
    Danke
    5
    Thanked 22 Times in 19 Posts
    hmh
    Width : 1 920 pixels
    Height : 1 080 pixels
    das zeigt leider das das was lucas schrieb korrekt ist, du hast hier hd
    besorg dir mal ein tool namens "handbrake" und wandle damit das video um, mach eine mkv draus, dann kannste die auflösung behalten, in der form kannst du am tv mit der datei nichts anfangen...

  9. #9
    New Member
    Points: 135, Level: 1
    Level completed: 85%, Points required for next Level: 15
    Overall activity: 0%
    Achievements:
    31 days registered100 Experience Points

    Registriert seit
    Nov 2012
    Beiträge
    6
    Points
    135
    Level
    1
    Danke
    0
    Thanked 0 Times in 0 Posts
    Moin,
    danke für die Info. Das mit dem Tool ist nicht schön. Da ich direkt auf/von meinem NAS streame, fände ich ein zusätzliches umwandeln unpraktisch. Auch verstehe ich nicht, warum der TV das Format nicht abspielen kann, wenn er es doch als normales HD Signal darstellt. Damit ist nach dem internen Sat Reciever und dem PVR-Feature auch der Mediaplayer im TV überflüssig. Hat alles nix mehr mit Smart zu tun. Aber das gilt wohl für alle Hersteller...
    Somit muß ich alles über meinen externen SAT Receiver machen und der TV ist nur noch ein dummes Display....

    Danke für Eure Info

    Lars

Lesezeichen

Berechtigungen

  • Neue Themen erstellen: Nein
  • Themen beantworten: Nein
  • Anhänge hochladen: Nein
  • Beiträge bearbeiten: Nein
  •