Hallo,

ich versuche Filme auf einem 24PFL3507H von einem DMS abzuspielen.
Wenn die Filme eine mir nicht bekannte Dateigröße bzw. Spieldauer übersteigen weigert sich der TV diese mit dem Hinweis
"Audio nicht unterstützt" sowie "Video nicht unterstützt" abzuspielen.

Z.B. wird der Film "Film1.mp4" ,45 Minuten Dauer - 206 MB, nicht abgespielt.
Ein Ausschnitt aus dem Film, "Film2.mp4", erstellt mit ffmpeg, Audio- sowie Videocodec kopiert, 16 Minuten - 101 MB, wird abgespielt.

Von USB werden beide Filme wiedergegeben.
Auf anderen Geräten (Smartphone, LG-TV, VLC) werden die Filme problemlos auch von einem DMS abgespielt.

Gibt es eine Lösung für das Problem außer Rückgabe des Philips-TV?

$ mediainfo Film1.mp4
General
Complete name : Film1.mp4
Format : MPEG-4
Format profile : Base Media
Codec ID : isom
File size : 197 MiB
Duration : 45mn 0s
Overall bit rate : 611 Kbps
Writing application : Lavf54.32.100

Video
ID : 1
Format : AVC
Format/Info : Advanced Video Codec
Format profile : High@L3.0
Format settings, CABAC : Yes
Format settings, ReFrames : 4 frames
Codec ID : avc1
Codec ID/Info : Advanced Video Coding
Duration : 45mn 0s
Bit rate : 475 Kbps
Width : 640 pixels
Height : 360 pixels
Display aspect ratio : 16:9
Frame rate mode : Constant
Frame rate : 25.000 fps
Color space : YUV
Chroma subsampling : 4:2:0
Bit depth : 8 bits
Scan type : Progressive
Bits/(Pixel*Frame) : 0.082
Stream size : 153 MiB (78%)
Writing library : x264 core 125
Encoding settings : cabac=1 / ref=3 / deblock=1:0:0 / analyse=0x3:0x113 / me=hex / subme=7 / psy=1 / psy_rd=1.00:0.00 / mixed_ref=1 / me_range=16 / chroma_me=1 / trellis=1 / 8x8dct=1 / cqm=0 / deadzone=21,11 / fast_pskip=1 / chroma_qp_offset=-2 / threads=1 / lookahead_threads=1 / sliced_threads=0 / nr=0 / decimate=1 / interlaced=0 / bluray_compat=0 / constrained_intra=0 / bframes=3 / b_pyramid=2 / b_adapt=1 / b_bias=0 / direct=1 / weightb=1 / open_gop=0 / weightp=2 / keyint=250 / keyint_min=25 / scenecut=40 / intra_refresh=0 / rc=cqp / mbtree=0 / qp=21 / ip_ratio=1.40 / pb_ratio=1.30 / aq=0

Audio
ID : 2
Format : MPEG Audio
Format version : Version 1
Format profile : Layer 3
Codec ID : 6B
Duration : 45mn 0s
Duration_LastFrame : -1ms
Bit rate mode : Constant
Bit rate : 128 Kbps
Channel(s) : 1 channel
Sampling rate : 44.1 KHz
Compression mode : Lossy
Delay relative to video : -1s 24ms
Stream size : 41.2 MiB (21%)
Writing library : LAME3.99.5

================================================== ================================================

$ mediainfo Film2.mp4
General
Complete name : Film2.mp4
Format : MPEG-4
Format profile : Base Media
Codec ID : isom
File size : 96.6 MiB
Duration : 16mn 40s
Overall bit rate : 811 Kbps
Writing application : Lavf54.32.100

Video
ID : 1
Format : AVC
Format/Info : Advanced Video Codec
Format profile : High@L3.0
Format settings, CABAC : Yes
Format settings, ReFrames : 4 frames
Codec ID : avc1
Codec ID/Info : Advanced Video Coding
Duration : 16mn 40s
Bit rate : 675 Kbps
Width : 640 pixels
Height : 360 pixels
Display aspect ratio : 16:9
Frame rate mode : Constant
Frame rate : 25.000 fps
Color space : YUV
Chroma subsampling : 4:2:0
Bit depth : 8 bits
Scan type : Progressive
Bits/(Pixel*Frame) : 0.117
Stream size : 80.5 MiB (83%)
Writing library : x264 core 125
Encoding settings : cabac=1 / ref=3 / deblock=1:0:0 / analyse=0x3:0x113 / me=hex / subme=7 / psy=1 / psy_rd=1.00:0.00 / mixed_ref=1 / me_range=16 / chroma_me=1 / trellis=1 / 8x8dct=1 / cqm=0 / deadzone=21,11 / fast_pskip=1 / chroma_qp_offset=-2 / threads=1 / lookahead_threads=1 / sliced_threads=0 / nr=0 / decimate=1 / interlaced=0 / bluray_compat=0 / constrained_intra=0 / bframes=3 / b_pyramid=2 / b_adapt=1 / b_bias=0 / direct=1 / weightb=1 / open_gop=0 / weightp=2 / keyint=250 / keyint_min=25 / scenecut=40 / intra_refresh=0 / rc=cqp / mbtree=0 / qp=21 / ip_ratio=1.40 / pb_ratio=1.30 / aq=0

Audio
ID : 2
Format : MPEG Audio
Format version : Version 1
Format profile : Layer 3
Codec ID : 6B
Duration : 16mn 40s
Bit rate mode : Constant
Bit rate : 128 Kbps
Channel(s) : 1 channel
Sampling rate : 44.1 KHz
Compression mode : Lossy
Stream size : 15.3 MiB (16%)
Writing library : LAME3.99.5