PDA

View Full Version : Sound codec not supported in some mkv files



alon
01-03-2013, 07:11 PM
Hello all,
Just buy the 7007 55' and it really amazing TV.
But i found out that when i want to play movies from my USB the MKV files have the title error when played using the TV player and have no sound. (both uses Codec ID A_DTS)
I checked two different moves using MediaInfo and here are the results:

Avatar mkv:

General
Unique ID : 228801551701973690486470631016734924076 (0xAC21937310C1D43C91ACDE7A54DC1D2C)
Complete name : \\Net-boxdrive\a\Movies\Fantasy\avatar.720p.bluray.x264\ avatar.720p.bluray.x264-cbgb.mkv
Format : Matroska
Format version : Version 2
File size : 7.94 GiB
Duration : 2h 41mn
Overall bit rate : 7 033 Kbps
Encoded date : UTC 2008-04-23 14:39:32
Writing application : mkvmerge v2.9.8 ('C'est le bon') built on Aug 21 2009 13:21:42
Writing library : libebml v0.7.7 + libmatroska v0.8.1

Video
ID : 1
Format : AVC
Format/Info : Advanced Video Codec
Format profile : High@L3.1
Format settings, CABAC : Yes
Format settings, ReFrames : 5 frames
Codec ID : V_MPEG4/ISO/AVC
Duration : 2h 41mn
Bit rate : 5 525 Kbps
Width : 1 280 pixels
Height : 720 pixels
Display aspect ratio : 16:9
Frame rate mode : Constant
Frame rate : 23.976 fps
Color space : YUV
Chroma subsampling : 4:2:0
Bit depth : 8 bits
Scan type : Progressive
Bits/(Pixel*Frame) : 0.250
Stream size : 6.08 GiB (77%)
Writing library : x264 core 93 r1542M 5b86182
Encoding settings : cabac=1 / ref=5 / deblock=1:0:0 / analyse=0x3:0x113 / me=umh / subme=7 / psy=1 / psy_rd=1.00:0.20 / mixed_ref=1 / me_range=16 / chroma_me=1 / trellis=1 / 8x8dct=1 / cqm=0 / deadzone=21,11 / fast_pskip=1 / chroma_qp_offset=-3 / threads=12 / sliced_threads=0 / nr=0 / decimate=1 / interlaced=0 / constrained_intra=0 / bframes=3 / b_pyramid=2 / b_adapt=1 / b_bias=0 / direct=3 / wpredb=1 / wpredp=2 / keyint=250 / keyint_min=25 / scenecut=40 / intra_refresh=0 / rc_lookahead=40 / rc=2pass / mbtree=1 / bitrate=5525 / ratetol=1.0 / qcomp=0.60 / qpmin=10 / qpmax=51 / qpstep=4 / cplxblur=20.0 / qblur=0.5 / ip_ratio=1.40 / aq=1:1.00
Language : English
Default : Yes
Forced : No

Audio
ID : 2
Format : DTS
Format/Info : Digital Theater Systems
Mode : 16
Format settings, Endianness : Big
Codec ID : A_DTS
Duration : 2h 41mn
Bit rate mode : Constant
Bit rate : 1 509 Kbps
Channel(s) : 6 channels
Channel positions : Front: L C R, Side: L R, LFE
Sampling rate : 48.0 KHz
Bit depth : 24 bits
Compression mode : Lossy
Stream size : 1.70 GiB (21%)
Language : English
Default : Yes
Forced : No

Text
ID : 3
Format : UTF-8
Codec ID : S_TEXT/UTF8
Codec ID/Info : UTF-8 Plain Text
Language : English
Default : No
Forced : No

Menu
00:00:00.000 : en:00:00:00.000
00:06:17.961 : en:00:06:17.961
00:07:53.598 : en:00:07:53.598
00:12:04.891 : en:00:12:04.891
00:14:00.465 : en:00:14:00.465
00:20:00.574 : en:00:20:00.574
00:24:00.230 : en:00:24:00.230
00:26:53.278 : en:00:26:53.278
00:31:41.900 : en:00:31:41.900
00:33:33.428 : en:00:33:33.428
00:35:43.850 : en:00:35:43.850
00:43:31.859 : en:00:43:31.859
00:49:23.627 : en:00:49:23.627
00:54:29.975 : en:00:54:29.975
00:59:56.051 : en:00:59:56.051
01:05:10.198 : en:01:05:10.198
01:11:36.417 : en:01:11:36.417
01:15:11.006 : en:01:15:11.006
01:20:29.116 : en:01:20:29.116
01:24:41.910 : en:01:24:41.910
01:36:04.801 : en:01:36:04.801
01:37:55.786 : en:01:37:55.786
01:44:33.100 : en:01:44:33.100
01:48:15.489 : en:01:48:15.489
01:53:53.868 : en:01:53:53.868
01:55:32.884 : en:01:55:32.884
01:58:38.820 : en:01:58:38.820
02:02:05.568 : en:02:02:05.568
02:05:33.859 : en:02:05:33.859
02:10:01.835 : en:02:10:01.835
02:16:07.284 : en:02:16:07.284
02:19:50.841 : en:02:19:50.841
02:25:50.325 : en:02:25:50.325
02:31:14.065 : en:02:31:14.065
02:35:05.296 : en:02:35:05.296



Refind state of play MKV

General
Unique ID : 209928971127536570922439619283181291120 (0x9DEED96321EE8FC3A10EBC9428D6C670)
Complete name : \\Net-boxdrive\a\Movies\State.of.Play.720p.BluRay.x264-REFiNED_IDOWN.ME\refined-state.of.play-720p.mkv
Format : Matroska
Format version : Version 2
File size : 6.54 GiB
Duration : 2h 7mn
Overall bit rate : 7 366 Kbps
Encoded date : UTC 2009-08-17 17:00:10
Writing application : mkvmerge v2.9.7 ('Tenderness') built on Jul 1 2009 18:43:35
Writing library : libebml v0.7.7 + libmatroska v0.8.1

Video
ID : 1
Format : AVC
Format/Info : Advanced Video Codec
Format profile : High@L4.1
Format settings, CABAC : Yes
Format settings, ReFrames : 5 frames
Codec ID : V_MPEG4/ISO/AVC
Duration : 2h 7mn
Bit rate : 5 833 Kbps
Width : 1 280 pixels
Height : 544 pixels
Display aspect ratio : 2.35:1
Frame rate mode : Constant
Frame rate : 23.976 fps
Color space : YUV
Chroma subsampling : 4:2:0
Bit depth : 8 bits
Scan type : Progressive
Bits/(Pixel*Frame) : 0.349
Stream size : 5.07 GiB (78%)
Writing library : x264 core 71 r1210 42d6b17
Encoding settings : cabac=1 / ref=5 / deblock=1:0:0 / analyse=0x3:0x133 / me=umh / subme=7 / psy=1 / psy_rd=1.0:0.2 / mixed_ref=1 / me_range=16 / chroma_me=1 / trellis=1 / 8x8dct=1 / cqm=0 / deadzone=21,11 / chroma_qp_offset=-3 / threads=12 / nr=0 / decimate=1 / mbaff=0 / bframes=3 / b_pyramid=0 / b_adapt=1 / b_bias=0 / direct=3 / wpredb=1 / keyint=250 / keyint_min=25 / scenecut=40 / rc_lookahead=40 / rc=2pass / mbtree=1 / bitrate=5833 / ratetol=1.0 / qcomp=0.60 / qpmin=10 / qpmax=51 / qpstep=4 / cplxblur=20.0 / qblur=0.5 / ip_ratio=1.40 / aq=1:1.00
Language : English
Default : Yes
Forced : No

Audio
ID : 2
Format : DTS
Format/Info : Digital Theater Systems
Mode : 16
Format settings, Endianness : Big
Codec ID : A_DTS
Duration : 2h 7mn
Bit rate mode : Constant
Bit rate : 1 509 Kbps
Channel(s) : 6 channels
Channel positions : Front: L C R, Side: L R, LFE
Sampling rate : 48.0 KHz
Bit depth : 24 bits
Compression mode : Lossy
Delay relative to video : 11ms
Stream size : 1.34 GiB (20%)
Title : English DTS 1509kbps
Language : English
Default : Yes
Forced : No

Text
ID : 3
Format : UTF-8
Codec ID : S_TEXT/UTF8
Codec ID/Info : UTF-8 Plain Text
Title : English
Language : English
Default : Yes
Forced : No

Please Help
Thanks
Alon

amirhy
03-03-2013, 02:05 PM
Hey Alon,
Did you get a reply on this? I can't seem to watch MKV movies myself on a 6606 TV and I don't know how to overcome it.
Thanks,
Amir

Toengel
03-03-2013, 04:30 PM
Hi,

DTS is not supported.

Toengel@Alex