PDA

View Full Version : poblem to play media from USB



tinoso
03-03-2011, 06:14 PM
to play the file from usb, listening but not video starts a few seconds.
passed those seconds longer heard.
all with the screen totally black.
this is the configuration file (by mediainfo)

Format : Matroska
File size : 1.96 GiB
Duration : 23mn 23s
Overall bit rate : 12.0 Mbps
Encoded date : UTC 2011-03-03 18:44:29
Writing application : mkvmerge v4.5.0 ('Speed of Light') creado el Feb 1 2011 02:10:32
Writing library : libebml v1.2.0 + libmatroska v1.1.0

Video
ID : 1
Format : AVC
Format/Info : Advanced Video Codec
Format profile : High@L5.1
Format settings, CABAC : Yes
Format settings, ReFrames : 16 frames
Codec ID : V_MPEG4/ISO/AVC
Duration : 23mn 23s
Bit rate : 11.3 Mbps
Width : 1 920 pixels
Height : 1 080 pixels
Display aspect ratio : 16:9
Frame rate : 23.976 fps
Color space : YUV
Chroma subsampling : 4:2:0
Bit depth : 8 bits
Scan type : Progressive
Bits/(Pixel*Frame) : 0.227
Stream size : 1.82 GiB (93%)
Writing library : x264 core 55 svn-655
Encoding settings : cabac=1 / ref=16 / deblock=1:-2:-1 / analyse=0x3:0x133 / me=umh / subme=7 / brdo=1 / mixed_ref=1 / me_range=16 / chroma_me=1 / trellis=2 / 8x8dct=1 / cqm=0 / deadzone=21,11 / chroma_qp_offset=0 / threads=2 / nr=0 / decimate=0 / mbaff=0 / bframes=3 / b_pyramid=1 / b_adapt=1 / b_bias=0 / direct=3 / wpredb=1 / bime=1 / keyint=250 / keyint_min=25 / scenecut=40(pre) / rc=2pass / bitrate=11305 / ratetol=1.5 / rceq='blurCplx^(1-qComp)' / qcomp=0.60 / qpmin=10 / qpmax=51 / qpstep=4 / cplxblur=20.0 / qblur=0.5 / ip_ratio=1.40 / pb_ratio=1.30
Language : Spanish

Audio
ID : 2
Format : AC-3
Format/Info : Audio Coding 3
Mode extension : CM (complete main)
Codec ID : A_AC3
Duration : 23mn 23s
Bit rate mode : Constant
Bit rate : 640 Kbps
Channel(s) : 6 channels
Channel positions : Front: L C R, Side: L R, LFE
Sampling rate : 48.0 KHz
Bit depth : 16 bits
Compression mode : Lossy
Stream size : 107 MiB (5%)
Language : Spanish

I've tried everything to reach this situation.
any suggestions, thanks.

Toengel
03-03-2011, 06:51 PM
Hi,

the video codec profile is not supported: High@L5.1

Maximum of high@L4.1 is supported.

Toengel@Alex

kralizeck
03-03-2011, 07:53 PM
Try to recoded it without header compresion: http://matroska.info/ ... info is in spanish ;-)