PDA

View Full Version : 5805h stops reading mkv after firmware



uparildak
09-04-2011, 02:33 PM
i have a 46pfl5085h. After latest firmware update, my tv stops reading mkv videos from usb. I tried to solve subtitle proble with this update, but it solved the problem by not showing any videos so i do not need embed subtitles now.

are there anyone knows anything about this problem?

Philips - Thomas
09-05-2011, 10:29 AM
Hi

please analyze your Videos with "mediainfo" on your PC and post the Data in here.
So we can see where it comes from.

Regards
Thomas

uparildak
09-05-2011, 06:20 PM
one of the videos with resolution: 1280x696, Aspect: 16:9 (1237x696) 23.97fps

tv was showing this vid before 140.39 update.

a_Tom
09-05-2011, 06:36 PM
interesting, but please also copy the mediainfo analysis

uparildak
09-05-2011, 08:21 PM
Format : Matroska
Format version : Version 2
File size : 4.36 GiB
Duration : 1h 45mn
Overall bit rate : 5 902 Kbps
Encoded date : UTC 2011-06-09 12:48:13
Writing application : mkvmerge v4.8.0 ('I Got The...') built on May 25 2011 06:38:18
Writing library : libebml v1.2.0 + libmatroska v1.1.0

Video
ID : 1
Format : AVC
Format/Info : Advanced Video Codec
Format profile : High@L4.1
Format settings, CABAC : Yes
Format settings, ReFrames : 5 frames
Codec ID : V_MPEG4/ISO/AVC
Duration : 1h 45mn
Bit rate : 4 394 Kbps
Width : 1 280 pixels
Height : 696 pixels
Display aspect ratio : 16:9
Original display aspect ratio : 16:9
Frame rate : 23.976 fps
Color space : YUV
Chroma subsampling : 4:2:0
Bit depth : 8 bits
Scan type : Progressive
Bits/(Pixel*Frame) : 0.206
Stream size : 3.16 GiB (72%)
Writing library : x264 core 115 r1995 c1e60b9
Encoding settings : cabac=1 / ref=5 / deblock=1:0:0 / analyse=0x3:0x113 / me=umh / subme=7 / psy=1 / psy_rd=1.00:0.00 / mixed_ref=1 / me_range=16 / chroma_me=1 / trellis=1 / 8x8dct=1 / cqm=0 / deadzone=21,11 / fast_pskip=0 / chroma_qp_offset=-2 / threads=12 / sliced_threads=0 / nr=0 / decimate=1 / interlaced=0 / bluray_compat=0 / constrained_intra=0 / bframes=3 / b_pyramid=2 / b_adapt=1 / b_bias=0 / direct=1 / weightb=1 / open_gop=0 / weightp=2 / keyint=250 / keyint_min=23 / scenecut=40 / intra_refresh=0 / rc_lookahead=40 / rc=2pass / mbtree=1 / bitrate=4394 / ratetol=1.0 / qcomp=0.60 / qpmin=0 / qpmax=69 / qpstep=4 / cplxblur=20.0 / qblur=0.5 / ip_ratio=1.40 / aq=1:1.00
Language : English

Audio
ID : 2
Format : DTS
Format/Info : Digital Theater Systems
Codec ID : A_DTS
Duration : 1h 45mn
Bit rate mode : Constant
Bit rate : 1 510 Kbps
Channel(s) : 6 channels
Channel positions : Front: L C R, Side: L R, LFE
Sampling rate : 48.0 KHz
Bit depth : 24 bits
Compression mode : Lossy
Stream size : 1.12 GiB (26%)
Language : English

Toengel
09-06-2011, 07:23 AM
Hi,

well... DTS is not supported on your TV.

Which firmware did you have BEFORE your update?

Toengel@Alex