PDA

View Full Version : Tv 42pfl4606



Skyline
10-16-2011, 01:30 AM
Hello.
Just today I bought a TV Philips 42PFL4606
When I try to run movie all work very good full screen 1080P with my USB 16GB MKV file
and the problem it says
"only video Service , audio not supported"

and i try few files mkv

General
Unique ID : 222453197176680437717567625670638639614 (0xA75AED67E7D9F89395E39363820319FE)
Complete name : E:\video\HD movie\Forsag.5.2011.D.BDRip.1080p_EPIDEMZ.NET.mkv
Format : Matroska
File size : 9.96 GiB
Duration : 2h 10mn
Overall bit rate : 10.9 Mbps
Movie name : Forsag.5.(2011).BDRip.1080p.x264.3HRZer0 (specifically for hq-films.ws )
Encoded date : UTC 2011-08-19 06:28:39
Writing application : mkvmerge v4.8.0 ('I Got The...') ?????? ?? May 24 2011 03:12:58
Writing library : libebml v1.2.0 + libmatroska v1.1.0

Video
ID : 1
Format : AVC
Format/Info : Advanced Video Codec
Format profile : High@L4.1
Format settings, CABAC : Yes
Format settings, ReFrames : 4 frames
Codec ID : V_MPEG4/ISO/AVC
Duration : 2h 10mn
Bit rate : 8 654 Kbps
Width : 1 920 pixels
Height : 816 pixels
Display aspect ratio : 2.35:1
Frame rate : 23.976 fps
Color space : YUV
Chroma subsampling : 4:2:0
Bit depth : 8 bits
Scan type : Progressive
Bits/(Pixel*Frame) : 0.230
Stream size : 7.70 GiB (77%)
Title : Forsag.5.(2011).BDRip.1080p.x264.3HRZer0
Writing library : x264 core 116 r2044 392e762
Encoding settings : cabac=1 / ref=4 / deblock=1:0:0 / analyse=0x3:0x133 / me=umh / subme=9 / psy=1 / psy_rd=1.00:0.15 / mixed_ref=1 / me_range=32 / chroma_me=1 / trellis=1 / 8x8dct=1 / cqm=0 / deadzone=21,11 / fast_pskip=0 / chroma_qp_offset=-3 / threads=6 / sliced_threads=0 / nr=0 / decimate=1 / interlaced=0 / bluray_compat=0 / constrained_intra=0 / bframes=5 / b_pyramid=2 / b_adapt=2 / b_bias=0 / direct=3 / weightb=1 / open_gop=0 / weightp=2 / keyint=250 / keyint_min=10 / scenecut=40 / intra_refresh=0 / rc_lookahead=40 / rc=2pass / mbtree=1 / bitrate=8654 / ratetol=1.0 / qcomp=0.60 / qpmin=0 / qpmax=69 / qpstep=4 / cplxblur=20.0 / qblur=0.5 / ip_ratio=1.40 / aq=1:1.00
Language : English

Audio #1
ID : 2
Format : DTS
Format/Info : Digital Theater Systems
Codec ID : A_DTS
Duration : 2h 10mn
Bit rate mode : Constant
Bit rate : 755 Kbps
Channel(s) : 6 channels
Channel positions : Front: L C R, Side: L R, LFE
Sampling rate : 48.0 KHz
Bit depth : 24 bits
Compression mode : Lossy
Stream size : 703 MiB (7%)
Language : Russian

Audio #2
ID : 3
Format : DTS
Format/Info : Digital Theater Systems
Codec ID : A_DTS
Duration : 2h 10mn
Bit rate mode : Constant
Bit rate : 1 510 Kbps
Channel(s) : 6 channels
Channel positions : Front: L C R, Side: L R, LFE
Sampling rate : 48.0 KHz
Bit depth : 24 bits
Compression mode : Lossy
Stream size : 1.37 GiB (14%)
Language : English

Text #1
ID : 4
Format : UTF-8
Codec ID : S_TEXT/UTF8
Codec ID/Info : UTF-8 Plain Text
Language : Russian

Text #2
ID : 5
Format : UTF-8
Codec ID : S_TEXT/UTF8
Codec ID/Info : UTF-8 Plain Text
Language : English

and this

General
Unique ID : 206453543742404303749896238311394198532 (0x9B5181967189491C904F1FCC6BB34404)
Complete name : E:\video\HD movie\Limitless\Limitless 2011 UNRATED 1080p BluRay DTS x264-CtrlHD\!sample.mkv
Format : Matroska
File size : 137 MiB
Duration : 1mn 5s
Overall bit rate : 17.5 Mbps
Encoded date : UTC 2011-07-04 23:51:57
Writing application : mkvmerge v4.7.0 ('Just Like You Imagined') built on Apr 21 2011 01:13:14
Writing library : libebml v1.2.0 + libmatroska v1.1.0

Video
ID : 1
Format : AVC
Format/Info : Advanced Video Codec
Format profile : High@L4.1
Format settings, CABAC : Yes
Format settings, ReFrames : 5 frames
Format settings, GOP : M=4, N=60
Codec ID : V_MPEG4/ISO/AVC
Duration : 1mn 5s
Bit rate : 15.7 Mbps
Width : 1 920 pixels
Height : 800 pixels
Display aspect ratio : 2.40:1
Frame rate : 23.976 fps
Color space : YUV
Chroma subsampling : 4:2:0
Bit depth : 8 bits
Scan type : Progressive
Bits/(Pixel*Frame) : 0.426
Stream size : 122 MiB (89%)
Language : English

Audio
ID : 2
Format : DTS
Format/Info : Digital Theater Systems
Codec ID : A_DTS
Duration : 1mn 5s
Bit rate mode : Constant
Bit rate : 1 510 Kbps
Channel(s) : 6 channels
Channel positions : Front: L C R, Side: L R, LFE
Sampling rate : 48.0 KHz
Bit depth : 24 bits
Compression mode : Lossy
Delay relative to video : 3ms
Stream size : 11.8 MiB (9%)

Text #1
ID : 3
Format : VobSub
Muxing mode : zlib
Codec ID : S_VOBSUB
Codec ID/Info : The same subtitle format used on DVDs
Title : English
Language : English

Text #2
ID : 4
Format : VobSub
Muxing mode : zlib
Codec ID : S_VOBSUB
Codec ID/Info : The same subtitle format used on DVDs
Title : Spanish
Language : Spanish

Text #3
ID : 5
Format : VobSub
Muxing mode : zlib
Codec ID : S_VOBSUB
Codec ID/Info : The same subtitle format used on DVDs
Title : French
Language : French

Menu
00:00:00.000 : en:00:00:00.000

what i can do help me >:

xMen
10-16-2011, 06:54 AM
The Philips tv donīt support dts audio. See the link:
http://www.supportforum.philips.com/en/showthread.php?2277-Subtitle-support-and-MKV-DTS-codec
Try to convert dts audio to ac3.