PDA

View Full Version : update for MKV files



mitchel
12-16-2011, 06:01 PM
I have a tv model 42PFL5604H/12 and i can't open MKV files from an external HDD. Is it posible to download an update version to open these files? Or what's your suggestion?

ali54
12-16-2011, 07:12 PM
I have a tv model 42PFL5604H/12 and i can't open MKV files from an external HDD. Is it posible to download an update version to open these files? Or what's your suggestion?
do you problem with all mkv files or just some with dts sound becuse philips tvs dont suport dts dos your tv suport ply back of mkv?

mitchel
12-16-2011, 07:50 PM
yes, i have with alls files mkv, it doesn't ply mkv files

paul1508
12-18-2011, 08:23 PM
My 37PFL606K/02 can't find this file via network. But the network is working and I can watch .avi movies without any complains?


Format : Matroska
File size : 14.3 MiB
Duration : 57s 326ms
Overall bit rate : 2 089 Kbps
Movie name : Kung Fu Panda 2
Encoded date : UTC 2011-10-15 11:37:21
Writing application : mkvmerge v4.9.1 ('Ich will') gebaut am Jul 11 2011 21:28:54
Writing library : libebml v1.2.1 + libmatroska v1.1.1

Video
ID : 1
Format : AVC
Format/Info : Advanced Video Codec
Format profile : High@L4.1
Format settings, CABAC : Yes
Format settings, ReFrames : 5 frames
Format settings, GOP : M=4, N=16
Codec ID : V_MPEG4/ISO/AVC
Duration : 57s 307ms
Bit rate : 1 407 Kbps
Width : 1 280 pixels
Height : 544 pixels
Display aspect ratio : 2.35:1
Frame rate : 23.976 fps
Color space : YUV
Chroma subsampling : 4:2:0
Bit depth : 8 bits
Scan type : Progressive
Bits/(Pixel*Frame) : 0.084
Stream size : 9.62 MiB (67%)

Audio
ID : 2
Format : AC-3
Format/Info : Audio Coding 3
Mode extension : CM (complete main)
Codec ID : A_AC3
Duration : 57s 326ms
Bit rate mode : Constant
Bit rate : 640 Kbps
Channel(s) : 6 channels
Channel positions : Front: L C R, Side: L R, LFE
Sampling rate : 48.0 KHz
Bit depth : 16 bits
Compression mode : Lossy
Delay relative to video : 14ms
Stream size : 4.37 MiB (31%)
Title : AC3
Language : German