PDA

View Full Version : MDP5180 / 12 Does not play any mkv ( freezes before it starts )



Weridius
02-20-2012, 09:01 AM
Hello!

my BDP5180 / 12 Does not play any mkv files, not from blueray cd not from usb not from sharing, it just freezes before it even starts playing the video...

Well any toughts on that??

Thanks for the replys...

Oscar
02-20-2012, 09:32 AM
Did you check this link http://www.supportforum.philips.com/en/showthread.php?2578-Supported-CODEC-overview-for-Blu-ray-players&

Weridius
02-20-2012, 10:13 AM
Can not read the exel file...(

Weridius
02-20-2012, 10:25 AM
This is what the Media info says about the files...



General
Unique ID : 26930818383540589086200163130090386937 (0x1442AFDC4B4B716DB42C88BD0FE2F5F9)
Complete name : C:\Documents and Settings\Rio Billy\My Documents\My Videos\Immortals\immortals.2011.720p.bluray.x264-blow.mkv.mkv
Format : Matroska
Format version : Version 2
File size : 4.37 GiB
Duration : 1h 50mn
Overall bit rate : 5 665 Kbps
Encoded date : UTC 2012-02-16 00:00:28
Writing application : mkvmerge v5.0.1 ('Es ist Sommer') built on Oct 9 2011 16:57:02
Writing library : libebml v1.2.2 + libmatroska v1.3.0

Video
ID : 1
Format : AVC
Format/Info : Advanced Video Codec
Format profile : High@L4.1
Format settings, CABAC : Yes
Format settings, ReFrames : 5 frames
Muxing mode : Header stripping
Codec ID : V_MPEG4/ISO/AVC
Duration : 1h 50mn
Bit rate : 4 159 Kbps
Width : 1 280 pixels
Height : 688 pixels
Display aspect ratio : 1.860
Frame rate : 23.976 fps
Color space : YUV
Chroma subsampling : 4:2:0
Bit depth : 8 bits
Scan type : Progressive
Bits/(Pixel*Frame) : 0.197
Stream size : 3.12 GiB (71%)
Writing library : x264 core 120 r2164 da19765
Encoding settings : cabac=1 / ref=5 / deblock=1:0:0 / analyse=0x3:0x133 / me=umh / subme=7 / psy=1 / psy_rd=1.00:0.00 / mixed_ref=1 / me_range=16 / chroma_me=1 / trellis=1 / 8x8dct=1 / cqm=0 / deadzone=21,11 / fast_pskip=0 / chroma_qp_offset=-2 / threads=12 / sliced_threads=0 / nr=0 / decimate=1 / interlaced=0 / bluray_compat=0 / constrained_intra=0 / bframes=3 / b_pyramid=2 / b_adapt=1 / b_bias=0 / direct=1 / weightb=1 / open_gop=0 / weightp=2 / keyint=250 / keyint_min=23 / scenecut=40 / intra_refresh=0 / rc_lookahead=40 / rc=2pass / mbtree=1 / bitrate=4159 / ratetol=1.0 / qcomp=0.60 / qpmin=0 / qpmax=69 / qpstep=4 / cplxblur=20.0 / qblur=0.5 / ip_ratio=1.40 / aq=1:1.00
Language : English
Default : Yes
Forced : No

Audio
ID : 2
Format : DTS
Format/Info : Digital Theater Systems
Muxing mode : Header stripping
Codec ID : A_DTS
Duration : 1h 50mn
Bit rate mode : Constant
Bit rate : 1 510 Kbps
Channel(s) : 6 channels
Channel positions : Front: L C R, Side: L R, LFE
Sampling rate : 48.0 KHz
Bit depth : 24 bits
Compression mode : Lossy
Stream size : 1.16 GiB (27%)
Default : Yes
Forced : No

Weridius
02-20-2012, 10:26 AM
And the player does not play them... He starts to but he freezes every time ( tried like 50 times hehe... :D )

Oscar
02-20-2012, 11:17 AM
Might be good to send the file over

Weridius
02-20-2012, 11:54 AM
Might be good to send the file over

I don't understand... Send the file where... ( sorry if i bother ya to much :D )

Oscar
02-20-2012, 11:56 AM
No worries ;)

Send them to the moderators

Weridius
02-20-2012, 12:14 PM
you mean the whole file or just the info about the file...?

eliseee
02-27-2012, 07:06 AM
any error message? is there sth like "format not supported" or so?

eliseee
02-27-2012, 07:07 AM
the whole file i guess. better for the team to investigate