PDA

View Full Version : Browse PC problem



EngKT
03-05-2012, 08:14 AM
Hi I am 40PFL6606H/12 user, and i am facing problem playing video from my PC. Below is my video details: I guess my TV suppose able to support it.

Video:
Length: 00:57:18
Frame width: 1920
Frame Height: 1080
Data rate : 24000kbps
Total bitrate : 24128kbps
Frame rate : 29 frames/second

Audio
Bit rate 128kbps
Channels: 2(stereo)
Audio sample rate 48kHz

file size: 4.82 GB

Will file size effect the function? as i have no problem with other videos with same specifications, but shorter length and smaller file size.

Anyone can advice what should i do?

Thanks

Toengel
03-05-2012, 08:26 AM
Hi,

please you the tool "mediainfo" and post the information of your movie (the output includes much more information).

Also, which DLNA server is running on your PC?

Toengel@Alex

EngKT
03-05-2012, 08:43 AM
Hi Alex:

General
Complete name : \\ITTECHRESEARCH\Users\Public\Videos\Sample Videos\Memorable moments HD.wmv
Format : Windows Media
File size : 4.82 GiB
Duration : 57mn 18s
Overall bit rate mode : Constant
Overall bit rate : 12.0 Mbps
Maximum Overall bit rate : 24.3 Mbps
Encoded date : UTC 2012-01-15 05:12:12.242

Video
ID : 1
Format : VC-1
Format profile : MP
Codec ID : WMV3
Codec ID/Info : Windows Media Video 9
Codec ID/Hint : WMV3
Description of the codec : Windows Media Video 9 - Professional
Duration : 57mn 18s
Bit rate mode : Constant
Bit rate : 24.0 Mbps
Width : 1 920 pixels
Height : 1 080 pixels
Display aspect ratio : 16:9
Frame rate : 29.970 fps
Bit depth : 8 bits
Scan type : Progressive
Compression mode : Lossy
Bits/(Pixel*Frame) : 0.386
Stream size : 9.61 GiB

Audio
ID : 2
Format : WMA
Format profile : Pro
Codec ID : 162
Codec ID/Info : Windows Media Audio
Description of the codec : Windows Media Audio 10 Professional - 128 kbps, 48 kHz, 2 channel 16 bit (A/V) 1-pass CBR
Duration : 57mn 18s
Bit rate mode : Constant
Bit rate : 128 Kbps
Channel(s) : 2 channels
Sampling rate : 48.0 KHz
Bit depth : 16 bits
Stream size : 52.5 MiB (1%)

I use Window Media Player 12

Thanks

EngKT
03-05-2012, 08:50 AM
FYI, I have no problem with below video:

General
Complete name : \\ITTECHRESEARCH\Users\Public\Videos\Sample Videos\Mywedding preview HD.wmv
Format : Windows Media
File size : 317 MiB
Duration : 2mn 50s
Overall bit rate mode : Constant
Overall bit rate : 15.6 Mbps
Maximum Overall bit rate : 24.2 Mbps
Encoded date : UTC 2012-03-05 06:32:04.958 / UTC 2101-05-26 21:30:40
MediaFoundationVersion : 2.112

Video
ID : 2
Format : VC-1
Format profile : MP
Codec ID : WMV3
Codec ID/Info : Windows Media Video 9
Codec ID/Hint : WMV3
Description of the codec : Windows Media Video 9 - Professional
Duration : 2mn 50s
Bit rate mode : Constant
Bit rate : 24.0 Mbps
Width : 1 920 pixels
Height : 1 080 pixels
Display aspect ratio : 16:9
Frame rate : 29.970 fps
Bit depth : 8 bits
Scan type : Progressive
Compression mode : Lossy
Bits/(Pixel*Frame) : 0.386
Stream size : 488 MiB

Audio
ID : 1
Format : WMA
Format version : Version 2
Codec ID : 161
Codec ID/Info : Windows Media Audio
Description of the codec : Windows Media Audio 9.2 - 192 kbps, 48 kHz, stereo (A/V) 1-pass CBR
Duration : 2mn 50s
Bit rate mode : Constant
Bit rate : 192 Kbps
Channel(s) : 2 channels
Sampling rate : 48.0 KHz
Bit depth : 16 bits
Stream size : 3.91 MiB (1%)

It looks same details except file size and video length...

EngKT
03-05-2012, 11:12 AM
Sorry, i forgot to tell, there is dialogue box " file can not be read or found "

petasis
03-05-2012, 07:43 PM
Which program are you using to stream the files?
Does the TV supports the involved codecs, or is the program transcoding the files on the fly?

EngKT
03-05-2012, 11:22 PM
I am using Window media player... from below article, it looks like problem of duration....

http://realmike.org/blog/2011/02/09/live-desktop-streaming-via-dlna-on-gnulinux/

any recommended DLNA server that may can solve this problem?

Philips - Thomas
03-06-2012, 06:11 AM
Hi

try the Twonky Server. Its 30 Days Trial for free.

Regards
Thomas