PDA

View Full Version : BDP2700/12 and some MKV



fma.toledo
03-16-2012, 09:38 PM
I have a philips BDP2700/12 version 1.73

When I try to play a MKV movie (in a USB or in a DVD) it wont work
If I try to play the file on my computer it works perfectly.

The file is H.264. Here's some output from mediainfo:
General
Unique ID : 210196846054106019129438793452113909946 (0x9E2270A40BA5E0039A6330ADDC4858BA)
Complete name : D:\VIDEO (2011) 1080p.mkv
Format : Matroska
Format version : Version 2
File size : 1.27 GiB
Duration : 1h 40mn
Overall bit rate : 1 807 Kbps
Encoded date : UTC 2012-03-11 16:57:50
Writing application : mkvmerge v4.4.0 ('Die Wiederkehr') realizado en Oct 31 2010 21:52:48
Writing library : libebml v1.0.0 + libmatroska v1.0.0

Video
ID : 1
Format : AVC
Format/Info : Advanced Video Codec
Format profile : Main@L4.0
Format settings, CABAC : Yes
Format settings, ReFrames : 4 frames
Muxing mode : Header stripping
Codec ID : V_MPEG4/ISO/AVC
Duration : 1h 40mn
Bit rate : 1 500 Kbps
Width : 1 424 pixels
Height : 1 080 pixels
Display aspect ratio : 4:3
Frame rate mode : Variable
Frame rate : 23.976 fps
Color space : YUV
Chroma subsampling : 4:2:0
Bit depth : 8 bits
Scan type : Progressive
Bits/(Pixel*Frame) : 0.041
Stream size : 1.02 GiB (80%)
Writing library : x264 core 120
Encoding settings : cabac=1 / ref=1 / deblock=1:0:0 / analyse=0x1:0x111 / me=hex / subme=2 / psy=1 / psy_rd=1.00:0.00 / mixed_ref=0 / me_range=16 / chroma_me=1 / trellis=0 / 8x8dct=0 / cqm=0 / deadzone=21,11 / fast_pskip=1 / chroma_qp_offset=0 / threads=6 / sliced_threads=0 / nr=0 / decimate=1 / interlaced=0 / bluray_compat=0 / constrained_intra=0 / bframes=3 / b_pyramid=2 / b_adapt=1 / b_bias=0 / direct=1 / weightb=1 / open_gop=0 / weightp=1 / keyint=240 / keyint_min=24 / scenecut=40 / intra_refresh=0 / rc_lookahead=10 / rc=abr / mbtree=1 / bitrate=1500 / ratetol=1.0 / qcomp=0.60 / qpmin=3 / qpmax=69 / qpstep=4 / ip_ratio=1.40 / aq=1:1.00
Language : English
Default : Yes
Forced : No
Color primaries : BT.709-5, BT.1361, IEC 61966-2-4, SMPTE RP177
Transfer characteristics : BT.709-5, BT.1361
Matrix coefficients : BT.709-5, BT.1361, IEC 61966-2-4 709, SMPTE RP177

Audio
ID : 2
Format : MPEG Audio
Format version : Version 1
Format profile : Layer 3
Mode : Joint stereo
Mode extension : MS Stereo
Muxing mode : Header stripping
Codec ID : A_MPEG/L3
Codec ID/Hint : MP3
Duration : 1h 40mn
Bit rate mode : Constant
Bit rate : 320 Kbps
Channel(s) : 2 channels
Sampling rate : 44.1 KHz
Compression mode : Lossy
Stream size : 230 MiB (18%)
Writing library : LAME3.97
Default : Yes
Forced : No



thanks for the help
Fma

Philips - Remko
03-19-2012, 12:58 PM
Hi fma.toledo,

Format profil Main@L4.0 is not supported.

Please check the following link http://www.supportforum.philips.com/en/showthread.php?2578-Supported-CODEC-overview-for-Blu-ray-players&

Kind regards