PDA

View Full Version : MKV weird behavior



Dany
08-19-2012, 08:28 PM
Hello,

I recently bought a BluRay player BDP5200/05.
Some MKV files won't play getting a message "unsupported video codec" in first attempt, in second time play well without any problem.

Do you have similiar symptoms?

Any suggestion please.

Thanks in advance.
Dany

Oscar
08-20-2012, 02:40 PM
so what codecs??

Dany
08-20-2012, 02:47 PM
Hi,

Codec AVC

Toengel
08-20-2012, 03:10 PM
Hi,

please examine with the tool Mediainfo (mediainfo.sourceforge.net). Please use the Text mode of Mediainfo of the file and post the output.

Toengel@Alex

Dany
08-20-2012, 04:58 PM
Hi,

General
Unique ID : 233563764133981738307050733750702733900 (0xAFB6BEA66CC9E3C3916539D4D7EE7A4C)
Complete name : H:\!!! FILMY HD 720p !!!\Braveheart.1995.SLOSub.720p.BluRay.x264-SiNNERS\Braveheart.1995.720p.BluRay.x264-SiNNERS.mkv
Format : Matroska
Format version : Version 2
File size : 7.94 GiB
Duration : 2h 57mn
Overall bit rate : 6 399 Kbps
Encoded date : UTC 2009-08-19 23:52:03
Writing application : mkvmerge v2.8.0 ('The Tree') built on May 9 2009 18:02:06
Writing library : libebml v0.7.7 + libmatroska v0.8.1

Video
ID : 1
Format : AVC
Format/Info : Advanced Video Codec
Format profile : High@L3.1
Format settings, CABAC : Yes
Format settings, ReFrames : 5 frames
Codec ID : V_MPEG4/ISO/AVC
Duration : 2h 57mn
Bit rate : 5 757 Kbps
Width : 1 280 pixels
Height : 544 pixels
Display aspect ratio : 2.35:1
Frame rate : 23.976 fps
Color space : YUV
Chroma subsampling : 4:2:0
Bit depth : 8 bits
Scan type : Progressive
Bits/(Pixel*Frame) : 0.345
Stream size : 6.99 GiB (88%)
Writing library : x264 core 72 r1217 5e9ae4c
Encoding settings : cabac=1 / ref=5 / deblock=1:0:0 / analyse=0x3:0x113 / me=umh / subme=7 / psy=1 / psy_rd=1.0:0.0 / mixed_ref=1 / me_range=16 / chroma_me=1 / trellis=1 / 8x8dct=1 / cqm=0 / deadzone=21,11 / chroma_qp_offset=-2 / threads=12 / nr=0 / decimate=1 / mbaff=0 / bframes=3 / b_pyramid=1 / b_adapt=1 / b_bias=0 / direct=1 / wpredb=1 / keyint=250 / keyint_min=25 / scenecut=40 / rc=2pass / mbtree=0 / bitrate=5757 / ratetol=1.0 / qcomp=0.60 / qpmin=10 / qpmax=51 / qpstep=4 / cplxblur=20.0 / qblur=0.5 / ip_ratio=1.40 / pb_ratio=1.30 / aq=1:1.00
Language : English
Default : Yes
Forced : No

Audio
ID : 2
Format : AC-3
Format/Info : Audio Coding 3
Mode extension : CM (complete main)
Codec ID : A_AC3
Duration : 2h 57mn
Bit rate mode : Constant
Bit rate : 640 Kbps
Channel(s) : 6 channels
Channel positions : Front: L C R, Side: L R, LFE
Sampling rate : 48.0 KHz
Bit depth : 16 bits
Compression mode : Lossy
Stream size : 814 MiB (10%)
Default : Yes
Forced : No

Text
ID : 3
Format : UTF-8
Codec ID : S_TEXT/UTF8
Codec ID/Info : UTF-8 Plain Text
Language : English
Default : No
Forced : No

lucas1970
08-31-2012, 08:27 AM
Looking at the codec table this supports only High@L4 / L4.1 not 3.1