PDA

View Full Version : sw blocking all tv not responding to non cmd



ViRaveNuS
08-28-2012, 02:14 PM
hi there ! i am new arround here ! yesterday i bought a new philips led 32" 32pfl3517 , and i was so happy to see a movie on my new tv bla bla ... untill...i copied a movie .avi on stick and press play ! The hole tv just block's no command respond nothing ! And then i upgraded the firmware the newest from this site ... upgrading went fine ! I just tell to my self is just my movie problem or stick ... take another stick from a friend another movie ....when press play it just keeps blocking but not whit all the movie ... but the thing is just i can return to previous menu and i must unplug it from power ! what is wrong ? excuse me for my english thx for reading!

Toengel
08-28-2012, 02:24 PM
Hi,

please download the tool "mediainfo" (mediainfo.sourceforge.net) and open the movie with that tool (please use the "text mode") and post the outcome.

Toengel@Alex

ViRaveNuS
08-28-2012, 03:18 PM
ok ... i am not a guru in ubuntu but i think this is the full output of a video.avi witch blocks my entire tv and i need to unplug it from power !

mediainfo -f What\ do\ you\ really\ know\ about\ Islam.avi
General
Count : 279
Count of stream of this kind : 1
Kind of stream : General
Kind of stream : General
Stream identifier : 0
Count of video streams : 1
Count of audio streams : 1
Video_Format_List : MPEG-4 Visual
Video_Format_WithHint_List : MPEG-4 Visual (XviD)
Codecs Video : XviD
Audio_Format_List : MPEG Audio
Audio_Format_WithHint_List : MPEG Audio (MP3)
Audio codecs : MPEG-1 Audio layer 3
Complete name : What do you really know about Islam.avi
File name : What do you really know about Islam
File extension : avi
Format : AVI
Format : AVI
Format/Info : Audio Video Interleave
Format/Extensions usually used : avi
Commercial name : AVI
Internet media type : video/vnd.avi
Interleaved : No
Codec : AVI
Codec : AVI
Codec/Info : Audio Video Interleave
Codec/Extensions usually used : avi
File size : 939196416
File size : 896 MiB
File size : 896 MiB
File size : 896 MiB
File size : 896 MiB
File size : 895.7 MiB
Duration : 10196640
Duration : 2h 49mn
Duration : 2h 49mn 56s 640ms
Duration : 2h 49mn
Duration : 02:49:56.640
Overall bit rate mode : VBR
Overall bit rate mode : Variable
Overall bit rate : 736867
Overall bit rate : 737 Kbps
Stream size : 16453068
Stream size : 15.7 MiB (2%)
Stream size : 16 MiB
Stream size : 16 MiB
Stream size : 15.7 MiB
Stream size : 15.69 MiB
Stream size : 15.7 MiB (2%)
Proportion of this stream : 0.01752
File last modification date : UTC 2012-08-27 14:54:44
File last modification date (local) : 2012-08-27 16:54:44
Writing application : VirtualDubMod 1.5.4.1 (build 2178/release)
Writing library : VirtualDubMod build 2178/release
Writing library : VirtualDubMod build 2178/release

Video
Count : 248
Count of stream of this kind : 1
Kind of stream : Video
Kind of stream : Video
Stream identifier : 0
ID : 0
ID : 0
Format : MPEG-4 Visual
Commercial name : MPEG-4 Visual
Format profile : Advanced Simple@L5
Format settings : BVOP1 / Custom Matrix
Format settings, BVOP : 1
Format settings, BVOP : 1
Format settings, QPel : No
Format settings, QPel : No
Format settings, GMC : 0
Format settings, GMC : No warppoints
Format settings, Matrix : Custom
Format settings, Matrix : Custom
Format_Settings_Matrix_Data : 0809090A0B0A0B0C0C0B0C0D0E0D0C0E0F10100F0E10101112 1110101212131414131212141516171615141618191918161A 1C1D1C1A1E22221E262E26343448 / 10101011111111111111121213121213131414131315141516 15141517161718181716171818191A1918181B1C1D1D1C1B20 2428242028303028343C3440406A
Internet media type : video/MP4V-ES
Codec ID : XVID
Codec ID/Hint : XviD
Codec ID/Url : http://mediaarea.net/XVID
Codec : XVID
Codec : XviD
Codec/Family : MPEG-4V
Codec/Info : XviD project
Codec/Url : http://www.xvid.org/Downloads.15.0.html
Codec/CC : XVID
Codec profile : Advanced Simple@L5
Codec settings : BVOP / Custom Matrix
Codec settings, Packet bitstream : No
Codec settings, BVOP : Yes
Codec settings, QPel : No
Codec settings, GMC : 0
Codec settings, GMC : No warppoints
Codec settings, Matrix : Custom
Duration : 10196640
Duration : 2h 49mn
Duration : 2h 49mn 56s 640ms
Duration : 2h 49mn
Duration : 02:49:56.640
Bit rate : 610713
Bit rate : 611 Kbps
Width : 512
Width : 512 pixels
Height : 384
Height : 384 pixels
Pixel aspect ratio : 1.000
Display aspect ratio : 1.333
Display aspect ratio : 4:3
Frame rate : 25.000
Frame rate : 25.000 fps
Frame count : 254916
Resolution : 8
Resolution : 8 bits
Colorimetry : 4:2:0
Color space : YUV
Chroma subsampling : 4:2:0
Bit depth : 8
Bit depth : 8 bits
Scan type : Progressive
Scan type : Progressive
Interlacement : PPF
Interlacement : Progressive
Compression mode : Lossy
Compression mode : Lossy
Bits/(Pixel*Frame) : 0.124
Delay : 0
Delay : 00:00:00.000
Stream size : 778402308
Stream size : 742 MiB (83%)
Stream size : 742 MiB
Stream size : 742 MiB
Stream size : 742 MiB
Stream size : 742.3 MiB
Stream size : 742 MiB (83%)
Proportion of this stream : 0.82880
Writing library : XviD0045
Writing library : XviD 1.2.0.dev45 (UTC 2006-07-10)
Writing library/Name : XviD
Writing library/Version : 1.2.0.dev45
Writing library/Date : UTC 2006-07-10

Audio
Count : 217
Count of stream of this kind : 1
Kind of stream : Audio
Kind of stream : Audio
Stream identifier : 0
ID : 1
ID : 1
Format : MPEG Audio
Commercial name : MPEG Audio
Format version : Version 1
Format profile : Layer 3
Format settings : Joint stereo / MS Stereo
Mode : Joint stereo
Mode extension : MS Stereo
Internet media type : audio/mpeg
Codec ID : 55
Codec ID/Hint : MP3
Codec ID/Url : http://www.iis.fraunhofer.de/amm/index.html
Codec : MPA1L3
Codec : MPEG-1 Audio layer 3
Codec/Family : MPEG-1
Codec/Info : MPEG-1 or 2 layer 3
Codec/Url : http://www.iis.fraunhofer.de/amm/index.html
Codec/CC : 55
Codec profile : Joint stereo
Duration : 10196640
Duration : 2h 49mn
Duration : 2h 49mn 56s 640ms
Duration : 2h 49mn
Duration : 02:49:56.640
Bit rate mode : VBR
Bit rate mode : Variable
Bit rate : 113245
Bit rate : 113 Kbps
Nominal bit rate : 128000
Nominal bit rate : 128 Kbps
Channel(s) : 2
Channel(s) : 2 channels
Sampling rate : 48000
Sampling rate : 48.0 KHz
Samples count : 489449088
Frame count : 424869
Compression mode : Lossy
Compression mode : Lossy
Delay : 0
Delay : 00:00:00.000
Delay, origin : Stream
Delay, origin : Raw stream
Delay relative to video : 0
Video0 delay : 0
Stream size : 144341040
Stream size : 138 MiB (15%)
Stream size : 138 MiB
Stream size : 138 MiB
Stream size : 138 MiB
Stream size : 137.7 MiB
Stream size : 138 MiB (15%)
Proportion of this stream : 0.15369
Alignment : Aligned
Alignment : Aligned on interleaves
Interleave, duration : 0.60
Interleave, duration : 24
Interleave, duration : 24 ms (0.60 video frame)
Interleave, preload duration : 528
Interleave, preload duration : 528 ms
Writing library : LAME3.97b
Writing library : LAME3.97b
Encoding settings : -m j -V 4 -q 2 -lowpass 17 --abr 12

i don't really know what meens down there but i tried to whach a video.mp4 and with that i don't have problems but , if the tv can't play lower video files , why don't he gives me the chance to return to menu or anything else...i press return .. no answer , home still no answer , press power button still no answer ! thx 4 reading my problm!