PDA

View Full Version : .WMV @ BDP7700 won't play at any config.



bjeunink
12-17-2012, 01:16 PM
1608Hello,

I have a NAS device with a lot of .WMV movies, but they all won't play over DLNA on my BDP7700!!!

These different movies contain mostly:
Compression
=1080p < 20Mpbs vc-1 advanced@L3/ .wmv
Compression
= 720p < 20Mbps vc-1 advanced@L3/ .wmv
Compression
< 720p < 2Mbps vc-1 advanced@L1/ .wmv

wma pro 640 kbps 5.1, 48kHz / or wma pro 256 kbps Stereo,48kHz / or even wma pro 128 kbps stereo, 41kHz

None of these movies will play, why? I don't understand???


example_1:
General
Complete name : \\Station254\public\Media\FILMS\10,000 BC (2008)\10.000BC (2008).wmv
Format : Windows Media
File size : 4.28 GiB
Duration : 1h 48mn
Overall bit rate mode : Constant
Overall bit rate : 5 620 Kbps
Maximum Overall bit rate : 6 228 Kbps
Movie name : 10.000BC (2008)
Movie name/More : Dutch
Encoded by : BJ
Genre : Movie
Recorded date : 2012
Encoded date : UTC 2012-12-12 11:38:27.607
Comment : Xbox360 format by BJ
WM/Category : Movie
WM/SharedUserRating : 50
WM/Director : Jonathan Liebesman
WM/OriginalReleaseYear : 2012
MediaFoundationVersion : 2.112

Video
ID : 2
Format : VC-1
Format profile : Advanced@L3
Codec ID : WVC1
Codec ID/Hint : Microsoft
Duration : 1h 48mn
Bit rate mode : Constant
Bit rate : 5 577 Kbps
Width : 1 280 pixels
Height : 720 pixels
Display aspect ratio : 16:9
Frame rate : 23.976 fps
Nominal frame rate : 29.970 fps
Chroma subsampling : 4:2:0
Bit depth : 8 bits
Scan type : Progressive
Compression mode : Lossy
Bits/(Pixel*Frame) : 0.252
Stream size : 4.24 GiB (99%)
Language : Dutch (NL)
VideoOrientation : 0

Audio
ID : 1
Format : WMA
Format profile : Pro
Codec ID : 162
Codec ID/Info : Windows Media Audio
Description of the codec : Windows Media Audio 10 Professional - 640 kbps, 48 kHz, 5.1 channel 24 bit 1-pass CBR
Duration : 1h 48mn
Bit rate mode : Constant
Bit rate : 640 Kbps
Channel(s) : 6 channels
Sampling rate : 48.0 KHz
Bit depth : 24 bits
Stream size : 499 MiB (11%)
Language : Dutch (NL)

--------------------------------------------------------------------------------------------------------------------------------------------

Example_2:
General
Complete name : \\Station254\public\Media\SERIES\Two and a half men Season 10\Two and a half Men S10e09 - I Scream when I Pee.wmv
Format : Windows Media
File size : 782 MiB
Duration : 20mn 2s
Overall bit rate mode : Constant
Overall bit rate : 5 454 Kbps
Maximum Overall bit rate : 6 065 Kbps
Movie name : Two and a half Men S10e09 - I Scream when I Pee
Movie name/More : Dutch
Encoded by : BJ
Genre : Movie
Recorded date : 2009
Encoded date : UTC 2012-12-09 11:58:07.139
Comment : Xbox360 format by BJ

Video
ID : 2
Format : VC-1
Format profile : Advanced@L3
Codec ID : WVC1
Codec ID/Hint : Microsoft
Description of the codec : VC-1 - VC-1 Advanced Profile
Duration : 20mn 2s
Bit rate mode : Constant
Bit rate : 5 774 Kbps
Width : 1 920 pixels
Height : 1 080 pixels
Display aspect ratio : 16:9
Frame rate : 23.976 fps
Chroma subsampling : 4:2:0
Bit depth : 8 bits
Scan type : Progressive
Compression mode : Lossy
Bits/(Pixel*Frame) : 0.116
Stream size : 828 MiB
Language : English (US)

Audio
ID : 1
Format : WMA
Format profile : Pro
Codec ID : 162
Codec ID/Info : Windows Media Audio
Description of the codec : Windows Media Audio 10 Professional - 256 kbps, 48 kHz, 2 channel 24 bit 1-pass CBR
Duration : 20mn 2s
Bit rate mode : Constant
Bit rate : 256 Kbps
Channel(s) : 2 channels
Sampling rate : 48.0 KHz
Bit depth : 24 bits
Stream size : 36.7 MiB (5%)
Language : English (US)

--------------------------------------------------------------------------------------------------------------------------------------------

Example_3:

General
Complete name : \\Station254\public\Media\SERIES\Looney Tunes Golden Collection Volume 01\Disc 01\V01d01e01 - Baseball Bugs.wmv
Format : Windows Media
File size : 88.7 MiB
Duration : 7mn 34s
Overall bit rate mode : Variable
Overall bit rate : 1 637 Kbps
Maximum Overall bit rate : 2 138 Kbps
Encoded date : UTC 2011-11-20 20:37:51.461
WM/SharedUserRating : 50
MediaFoundationVersion : 2.112

Video
ID : 2
Format : VC-1
Format profile : Advanced@L1
Codec ID : WVC1
Codec ID/Hint : Microsoft
Description of the codec : VC-1 - VC-1 Advanced Profile
Duration : 7mn 34s
Bit rate mode : Variable
Bit rate : 1 500 Kbps
Width : 800 pixels
Height : 452 pixels
Display aspect ratio : 16:9
Original display aspect ratio : 16:9
Frame rate : 29.970 fps
Original frame rate : 30.000 fps
Chroma subsampling : 4:2:0
Bit depth : 8 bits
Scan type : Progressive
Compression mode : Lossy
Bits/(Pixel*Frame) : 0.138
Stream size : 81.3 MiB (92%)
Language : Dutch (NL)

Audio
ID : 1
Format : WMA
Format profile : Pro
Codec ID : 162
Codec ID/Info : Windows Media Audio
Description of the codec : Windows Media Audio 10 Professional - 128 kbps, 44 kHz, 2 channel 16 bit 1-pass CBR
Duration : 7mn 34s
Bit rate mode : Constant
Bit rate : 128 Kbps
Channel(s) : 2 channels
Sampling rate : 44.1 KHz
Bit depth : 16 bits
Stream size : 6.94 MiB (8%)
Language : Dutch (NL)

Mike...
12-23-2012, 05:08 PM
Windows Media Audio 10 Professional

That's the problem, that audio codec is not supported. I have several WMV HD files, some with the 9.2 audio codec, some with the 10 pro. My TV, 42PFL4007H/12, will not play those last files.

My Pioneer Blu-ray player does play the files, but only the video, it says the audio format is not supported.

So a firmware update is needed.

bjeunink
12-27-2012, 12:39 PM
Ok thanks for explaining,

So it's The audio that's couses the problem.


Dear Philips, can you please Update all software for Tv's and BDP's?