Results 1 to 3 of 3
  • Topic Tools
  • Display
  • Bookmark and Share

Hybrid View

  1. #1
    New Member
    Points: 95, Level: 1
    Level completed: 45%, Points required for next Level: 55
    Overall activity: 35.0%
    Achievements:
    New Achievement!7 days registered

    Join Date
    Feb 2013
    Location
    Germany
    Posts
    6
    Points
    95
    Level
    1
    Thanks
    2
    Thanked 0 Times in 0 Posts
    Rep Power
    0

    Black screen when playing avi-files

    Bug: When I try to play some avi-videos from a DLNA-server (Twonky),
    the screen is black , only sound is playing.
    These videos are rendered without any problems on my PC.

    TV is 37PFL 6007k/12 with newest firmware x.83 (downloaded and installed via USB)
    but also the previous firmware version had this problem.

  2. #2
    Silver Member
    Points: 3,210, Level: 16
    Level completed: 40%, Points required for next Level: 240
    Overall activity: 0%
    Achievements:
    Overdrive1 year registered1000 Experience PointsTagger First ClassNew Achievement!
    Awards:
    Master Tagger

    Join Date
    Dec 2011
    Location
    Germany
    Posts
    72
    Points
    3,210
    Level
    16
    Thanks
    28
    Thanked 3 Times in 3 Posts
    Rep Power
    3
    Could you please post some relevant info about the media file you are trying to play?

    There are certain video codecs that are supported, and other codecs that are not supported by the TV and/or twonky.

    The best tool I know to get this info is MediaInfo ( http://mediainfo.sourceforge.net/de )

  3. #3
    New Member
    Points: 95, Level: 1
    Level completed: 45%, Points required for next Level: 55
    Overall activity: 35.0%
    Achievements:
    New Achievement!7 days registered

    Join Date
    Feb 2013
    Location
    Germany
    Posts
    6
    Points
    95
    Level
    1
    Thanks
    2
    Thanked 0 Times in 0 Posts
    Rep Power
    0
    Quote Originally Posted by chrisham View Post
    Could you please post some relevant info about the media file you are trying to play?

    There are certain video codecs that are supported, and other codecs that are not supported by the TV and/or twonky.

    The best tool I know to get this info is MediaInfo ( http://mediainfo.sourceforge.net/de )
    One example is recorded by a Canon camera. MediaInfo says:
    General
    Complete name : /home/wolfk/fotos/videos/stromy-lb_1.avi
    Format : AVI
    Format/Info : Audio Video Interleave
    File size : 11.8 MiB
    Duration : 9s 59ms
    Overall bit rate : 10.9 Mbps
    Mastered date : FRI NOV 26 18:19:58 2010
    Writing application : CanonMVI06

    Video
    ID : 0
    Format : M-JPEG
    Codec ID : MJPG
    Duration : 9s 59ms
    Bit rate : 10.2 Mbps
    Width : 320 pixels
    Height : 240 pixels
    Display aspect ratio : 4:3
    Frame rate : 59.940 fps
    Color space : YUV
    Chroma subsampling : 4:2:0
    Bit depth : 8 bits
    Scan type : Progressive
    Bits/(Pixel*Frame) : 2.216
    Stream size : 11.0 MiB (93%)

    Audio
    ID : 1
    Format : PCM
    Format settings, Endianness : Little
    Format settings, Sign : Signed
    Codec ID : 1
    Codec ID/Hint : Microsoft
    Duration : 9s 59ms
    Bit rate mode : Constant
    Bit rate : 705.6 Kbps
    Channel(s) : 1 channel
    Sampling rate : 44.1 KHz
    Bit depth : 16 bits
    Stream size : 780 KiB (6%)
    Interleave, duration : 906 ms (54.30 video frames)
    Interleave, preload duration : 1000 ms

    I hope, this helps.

Similar Topics

  1. Black Screen.
    By Zemtex in forum TV: Other
    Replies: 1
    Last Post: 03-18-2013, 12:12 PM
  2. Black screen
    By Robbie86 in forum TV: Software 2012 models
    Replies: 1
    Last Post: 10-17-2012, 04:59 PM
  3. Screen movement not always fluent when playing video files
    By RieS in forum TV: Software 2011 models
    Replies: 6
    Last Post: 09-29-2012, 03:21 PM
  4. Muse2: playing screen -> Media Library, not showing current playing track
    By Caveman in forum Sound: GoGear SA2-series (2010)
    Replies: 0
    Last Post: 02-07-2012, 05:23 PM
  5. Black Screen
    By ginaharding in forum TV: Other
    Replies: 0
    Last Post: 11-14-2011, 11:40 PM

Bookmarks

Posting Permissions

  • You may not post new threads
  • You may not post replies
  • You may not post attachments
  • You may not edit your posts
  •