Results 1 to 10 of 10
  • Topic Tools
  • Display
  • Bookmark and Share
  1. #1
    New Member
    Points: 41, Level: 1
    Level completed: 82%, Points required for next Level: 9
    Overall activity: 30.0%
    Achievements:
    New Achievement!

    Join Date
    Apr 2013
    Posts
    6
    Points
    41
    Level
    1
    Thanks
    0
    Thanked 0 Times in 0 Posts
    Rep Power
    0

    Angry BDP 3200 / 12 - mkv AR is wrong

    Hi,

    Philips, could you please fix the mkv AR problem for BDP3200/12 models? Picture is streched when it should have the black bars when you watch a movie for example. It is streched to full screen(up/down). I have tried to change every possible setup options but no luck.

    My firmware is 1.73. I noticed that this same problem is fixed for different batch of these players(different firmware/submodel).

    Please help. I have to return this player back to the seller if this problem is not solved.

    Thank you!

  2. #2
    Silver Member
    Points: 730, Level: 6
    Level completed: 90%, Points required for next Level: 20
    Overall activity: 55.0%
    Achievements:
    New Achievement!3 months registered500 Experience Points

    Join Date
    Jan 2013
    Location
    Earth
    Posts
    131
    Points
    730
    Level
    6
    Thanks
    0
    Thanked 5 Times in 5 Posts
    Rep Power
    2
    Hi Boosted, welcome to the forum!

    Is it just one file you having issues with or is it all your MKV-files?

  3. #3
    New Member
    Points: 41, Level: 1
    Level completed: 82%, Points required for next Level: 9
    Overall activity: 30.0%
    Achievements:
    New Achievement!

    Join Date
    Apr 2013
    Posts
    6
    Points
    41
    Level
    1
    Thanks
    0
    Thanked 0 Times in 0 Posts
    Rep Power
    0
    I am having this problem with all my mkv files that has the AR what is used in movies. 2.40:1

    I made a test and converted one mkv file to MP4 and it worked correctly. AR was correct. I do not want to convert files in the future.

  4. #4
    Diamond Member
    Points: 50,163, Level: 69
    Level completed: 30%, Points required for next Level: 987
    Overall activity: 100.0%
    Achievements:
    Recommendation Second ClassTagger First ClassOverdrive1000 Experience PointsNew Achievement!
    Awards:
    Posting Award

    Join Date
    Oct 2010
    Posts
    5,958
    Points
    50,163
    Level
    69
    Thanks
    149
    Thanked 166 Times in 148 Posts
    Rep Power
    9
    Hi,

    can you please post a mediainfo (mediainfo.sourceforge.net) from one file (use text mode in that file).

    Toengel@Alex

  5. #5
    New Member
    Points: 41, Level: 1
    Level completed: 82%, Points required for next Level: 9
    Overall activity: 30.0%
    Achievements:
    New Achievement!

    Join Date
    Apr 2013
    Posts
    6
    Points
    41
    Level
    1
    Thanks
    0
    Thanked 0 Times in 0 Posts
    Rep Power
    0
    General
    Complete name : D:\test.mkv
    Format : Matroska
    Format version : Version 2
    File size : 4.37 GiB
    Duration : 1h 40mn
    Overall bit rate : 6 234 Kbps
    Writing application : mkvmerge v4.1.1 ('Bouncin' Back') built on Jul 3 2010 22:54:08
    Writing library : libebml v1.0.0 + libmatroska v1.0

    Video
    ID : 1
    Format : AVC
    Format/Info : Advanced Video Codec
    Format profile : High@L3.1
    Format settings, CABAC : Yes
    Format settings, ReFrames : 5 frames
    Codec ID : V_MPEG4/ISO/AVC
    Duration : 1h 40mn
    Bit rate : 4 723 Kbps
    Width : 1 280 pixels
    Height : 536 pixels
    Display aspect ratio : 2.40:1
    Frame rate mode : Constant
    Frame rate : 23.976 fps
    Color space : YUV
    Chroma subsampling : 4:2:0
    Bit depth : 8 bits
    Scan type : Progressive
    Bits/(Pixel*Frame) : 0.287
    Stream size : 3.22 GiB (74%)
    Writing library : x264 core 129 r2230 1cffe9f
    Encoding settings : cabac=1 / ref=5 / deblock=1:0:0 / analyse=0x3:0x133 / me=umh / subme=7 / psy=1 / psy_rd=1.00:0.00 / mixed_ref=1 / me_range=16 / chroma_me=1 / trellis=1 / 8x8dct=1 / cqm=0 / deadzone=21,11 / fast_pskip=0 / chroma_qp_offset=-2 / threads=12 / lookahead_threads=2 / sliced_threads=0 / nr=0 / decimate=1 / interlaced=0 / bluray_compat=0 / constrained_intra=0 / bframes=3 / b_pyramid=2 / b_adapt=2 / b_bias=0 / direct=3 / weightb=1 / open_gop=0 / weightp=2 / keyint=250 / keyint_min=23 / scenecut=40 / intra_refresh=0 / rc_lookahead=50 / rc=2pass / mbtree=1 / bitrate=4723 / ratetol=1.0 / qcomp=0.60 / qpmin=0 / qpmax=69 / qpstep=4 / cplxblur=20.0 / qblur=0.5 / ip_ratio=1.40 / aq=1:1.00
    Language : English
    Default : Yes
    Forced : No

    Audio
    ID : 2
    Format : DTS
    Format/Info : Digital Theater Systems
    Mode : 16
    Format settings, Endianness : Big
    Codec ID : A_DTS
    Duration : 1h 40mn
    Bit rate mode : Constant
    Bit rate : 1 509 Kbps
    Channel(s) : 6 channels
    Channel positions : Front: L C R, Side: L R, LFE
    Sampling rate : 48.0 KHz
    Bit depth : 24 bits
    Compression mode : Lossy
    Stream size : 1.06 GiB (24%)
    Language : English
    Default : Yes
    Forced : No

    Text
    ID : 3
    Format : UTF-8
    Codec ID : S_TEXT/UTF8
    Codec ID/Info : UTF-8 Plain Text
    Language : English
    Default : No
    Forced : No

    Menu
    00:00:00.000 : en:00:00:00.000
    00:06:23.008 : en:00:06:23.008
    00:10:21.579 : en:00:10:21.579
    00:13:26.014 : en:00:13:26.014
    00:16:48.299 : en:00:16:48.299
    00:20:58.674 : en:00:20:58.674
    00:24:34.765 : en:00:24:34.765
    00:30:07.097 : en:00:30:07.097
    00:36:39.364 : en:00:36:39.364
    00:41:17.350 : en:00:41:17.350
    00:45:32.313 : en:00:45:32.313
    00:49:38.517 : en:00:49:38.517
    00:53:13.941 : en:00:53:13.941
    01:00:13.860 : en:01:00:13.860
    01:05:29.342 : en:01:05:29.342
    01:11:09.724 : en:01:11:09.724
    01:17:11.544 : en:01:17:11.544
    01:21:51.073 : en:01:21:51.073
    01:26:28.100 : en:01:26:28.100
    01:32:37.010 : en:01:32:37.010

  6. #6
    New Member
    Points: 41, Level: 1
    Level completed: 82%, Points required for next Level: 9
    Overall activity: 30.0%
    Achievements:
    New Achievement!

    Join Date
    Apr 2013
    Posts
    6
    Points
    41
    Level
    1
    Thanks
    0
    Thanked 0 Times in 0 Posts
    Rep Power
    0

  7. #7
    New Member
    Points: 41, Level: 1
    Level completed: 82%, Points required for next Level: 9
    Overall activity: 30.0%
    Achievements:
    New Achievement!

    Join Date
    Apr 2013
    Posts
    6
    Points
    41
    Level
    1
    Thanks
    0
    Thanked 0 Times in 0 Posts
    Rep Power
    0
    I did not know that there is a delay posting reply..

    Please fix this issue. Thanks!

  8. #8
    Moderator
    Points: 1,808, Level: 11
    Level completed: 86%, Points required for next Level: 42
    Overall activity: 83.0%
    Achievements:
    New Achievement!3 months registered1000 Experience Points
    Philips - Marcus's Avatar
    Join Date
    Feb 2013
    Posts
    45
    Points
    1,808
    Level
    11
    Thanks
    1
    Thanked 7 Times in 4 Posts
    Rep Power
    10
    Hi Boosted

    Can you please provide serial number on your player? Preferable in a private message.

    Kind Regards,

    Marcus
    Forum Mod

  9. #9
    New Member
    Points: 41, Level: 1
    Level completed: 82%, Points required for next Level: 9
    Overall activity: 30.0%
    Achievements:
    New Achievement!

    Join Date
    Apr 2013
    Posts
    6
    Points
    41
    Level
    1
    Thanks
    0
    Thanked 0 Times in 0 Posts
    Rep Power
    0
    PM sent.

  10. #10
    Moderator
    Points: 1,808, Level: 11
    Level completed: 86%, Points required for next Level: 42
    Overall activity: 83.0%
    Achievements:
    New Achievement!3 months registered1000 Experience Points
    Philips - Marcus's Avatar
    Join Date
    Feb 2013
    Posts
    45
    Points
    1,808
    Level
    11
    Thanks
    1
    Thanked 7 Times in 4 Posts
    Rep Power
    10
    Thank you Boosted! I will get back to you as soon as possible!

    Kind Regards,

    Marcus
    Forum Mod

Similar Topics

  1. Bdp 3200
    By amilasajith in forum Blu-ray: BDP5000 & 6000 Series
    Replies: 1
    Last Post: 04-07-2013, 10:54 AM
  2. phillips bdp 3200
    By david bull in forum Blu-ray: BDP2000 & 3000 Series
    Replies: 1
    Last Post: 12-28-2012, 11:08 AM
  3. BPD 3200 streaming?
    By FlashHarry54 in forum Blu-ray: BDP2000 & 3000 Series
    Replies: 9
    Last Post: 11-29-2012, 06:07 AM
  4. Blu-ray 3200 and external HD
    By Fabienne in forum Blu-ray: BDP2000 & 3000 Series
    Replies: 4
    Last Post: 08-13-2012, 01:34 AM
  5. BDP 3200 - no wmv support ?
    By Schlacke in forum Blu-ray: BDP2000 & 3000 Series
    Replies: 5
    Last Post: 04-20-2012, 09:08 AM

Bookmarks

Posting Permissions

  • You may not post new threads
  • You may not post replies
  • You may not post attachments
  • You may not edit your posts
  •