Results 1 to 7 of 7
  • Topic Tools
  • Display
  • Bookmark and Share
  1. #1
    New Member
    Points: 35, Level: 1
    Level completed: 70%, Points required for next Level: 15
    Overall activity: 18.0%
    Achievements:
    New Achievement!

    Join Date
    Jun 2013
    Posts
    5
    Points
    35
    Level
    1
    Thanks
    3
    Thanked 0 Times in 0 Posts
    Rep Power
    0

    Iphone 5 Simple share error stream video

    hello
    i have 32PFL8605\12 (latest firmware 140.048~ )
    myremote Ver- 4.2.1 (clear install)

    simpleShare give me error when i try to Streaming videos,
    Click image for larger version. 

Name:	image (1).png 
Views:	66 
Size:	260.0 KB 
ID:	2038Click image for larger version. 

Name:	image.png 
Views:	45 
Size:	284.0 KB 
ID:	2039

    but all Controll very fine work, streaming Photos work!

  2. #2
    Diamond Member
    Points: 50,163, Level: 69
    Level completed: 30%, Points required for next Level: 987
    Overall activity: 100.0%
    Achievements:
    Recommendation Second ClassTagger First ClassOverdrive1000 Experience PointsNew Achievement!
    Awards:
    Posting Award

    Join Date
    Oct 2010
    Posts
    5,958
    Points
    50,163
    Level
    69
    Thanks
    149
    Thanked 166 Times in 148 Posts
    Rep Power
    9
    Hi,

    can you please translate the error message?

    Toengel@Alex

  3. The Following User Says Thank You to Toengel For This Useful Post:

    VEnZ0ja (06-28-2013)

  4. #3
    New Member
    Points: 35, Level: 1
    Level completed: 70%, Points required for next Level: 15
    Overall activity: 18.0%
    Achievements:
    New Achievement!

    Join Date
    Jun 2013
    Posts
    5
    Points
    35
    Level
    1
    Thanks
    3
    Thanked 0 Times in 0 Posts
    Rep Power
    0
    no problem)

    playback device error (on top bold font)
    unsupported file type 1FEF....


    this file name name on device

  5. #4
    Diamond Member
    Points: 50,163, Level: 69
    Level completed: 30%, Points required for next Level: 987
    Overall activity: 100.0%
    Achievements:
    Recommendation Second ClassTagger First ClassOverdrive1000 Experience PointsNew Achievement!
    Awards:
    Posting Award

    Join Date
    Oct 2010
    Posts
    5,958
    Points
    50,163
    Level
    69
    Thanks
    149
    Thanked 166 Times in 148 Posts
    Rep Power
    9
    Hi,

    well - it says that the file type of the media file (video?) is not supported. What kind of video is that?

    Toengel@Alex

  6. The Following User Says Thank You to Toengel For This Useful Post:

    VEnZ0ja (06-28-2013)

  7. #5
    New Member
    Points: 35, Level: 1
    Level completed: 70%, Points required for next Level: 15
    Overall activity: 18.0%
    Achievements:
    New Achievement!

    Join Date
    Jun 2013
    Posts
    5
    Points
    35
    Level
    1
    Thanks
    3
    Thanked 0 Times in 0 Posts
    Rep Power
    0
    this file video, recordered iphone 5

    General
    Format : MPEG-4
    Format profile : QuickTime
    Codec ID : qt
    File size : 318 MiB
    Duration : 2mn 34s
    Overall bit rate : 17.3 Mbps
    Recorded date : 2013-02-09T13:12:33+0400
    Encoded date : UTC 2013-02-09 09:12:33
    Tagged date : UTC 2013-02-09 09:12:46
    Writing application : 6.1
    Writing library : Apple QuickTime
    Model : iPhone 5
    ©xyz : +51.6042+045.9738+154.948/
    Make : Apple
    com.apple.quicktime.make : Apple
    com.apple.quicktime.creationdate : 2013-02-09T13:12:33+0400
    com.apple.quicktime.location.ISO6709 : +51.6042+045.9738+154.948/
    com.apple.quicktime.software : 6.1
    com.apple.quicktime.model : iPhone 5

    Video
    ID : 1
    Format : AVC
    Format/Info : Advanced Video Codec
    Format profile : High@L4.1
    Format settings, CABAC : Yes
    Format settings, ReFrames : 1 frame
    Format settings, GOP : M=1, N=30
    Codec ID : avc1
    Codec ID/Info : Advanced Video Coding
    Duration : 2mn 34s
    Source duration : 2mn 34s
    Bit rate : 17.2 Mbps
    Width : 1 920 pixels
    Height : 1 080 pixels
    Display aspect ratio : 16:9
    Frame rate mode : Variable
    Frame rate : 29.970 fps
    Minimum frame rate : 28.571 fps
    Maximum frame rate : 31.579 fps
    Color space : YUV
    Chroma subsampling : 4:2:0
    Bit depth : 8 bits
    Scan type : Progressive
    Bits/(Pixel*Frame) : 0.277
    Stream size : 317 MiB (100%)
    Source stream size : 317 MiB (100%)
    Title : Core Media Video
    Encoded date : UTC 2013-02-09 09:12:33
    Tagged date : UTC 2013-02-09 09:12:46
    Color primaries : BT.709
    Transfer characteristics : BT.709
    Matrix coefficients : BT.709

    Audio
    ID : 2
    Format : AAC
    Format/Info : Advanced Audio Codec
    Format profile : LC
    Codec ID : 40
    Duration : 2mn 34s
    Source duration : 2mn 34s
    Bit rate mode : Constant
    Bit rate : 64.0 Kbps
    Channel(s) : 1 channel
    Channel positions : Front: C
    Sampling rate : 44.1 KHz
    Compression mode : Lossy
    Stream size : 1.16 MiB (0%)
    Source stream size : 1.16 MiB (0%)
    Title : Core Media Audio
    Encoded date : UTC 2013-02-09 09:12:33
    Tagged date : UTC 2013-02-09 09:12:46

  8. #6
    Diamond Member
    Points: 50,163, Level: 69
    Level completed: 30%, Points required for next Level: 987
    Overall activity: 100.0%
    Achievements:
    Recommendation Second ClassTagger First ClassOverdrive1000 Experience PointsNew Achievement!
    Awards:
    Posting Award

    Join Date
    Oct 2010
    Posts
    5,958
    Points
    50,163
    Level
    69
    Thanks
    149
    Thanked 166 Times in 148 Posts
    Rep Power
    9
    Hi,

    I think, you TV is not able to handle quicktime movies... try to copy this file on USB stick and try to play it...

    Toengel@Alex

  9. The Following User Says Thank You to Toengel For This Useful Post:

    VEnZ0ja (06-28-2013)

  10. #7
    New Member
    Points: 35, Level: 1
    Level completed: 70%, Points required for next Level: 15
    Overall activity: 18.0%
    Achievements:
    New Achievement!

    Join Date
    Jun 2013
    Posts
    5
    Points
    35
    Level
    1
    Thanks
    3
    Thanked 0 Times in 0 Posts
    Rep Power
    0
    problem) solved) tv not support mov, quiktime
    thx you) i think simpleshare all play with device support type files (iphone)

Similar Topics

  1. somplyshare and iPhone video
    By jeantro in forum Apps: MyRemote App (for iOS)
    Replies: 5
    Last Post: 12-04-2012, 01:20 PM
  2. my remote simply share no video
    By marre in forum Apps: MyRemote App (for iOS)
    Replies: 2
    Last Post: 11-21-2012, 09:05 PM
  3. Simple speaker options for 40PFL3706/F7 Philips TV?
    By MacCat in forum TV: Connectivity
    Replies: 0
    Last Post: 09-30-2012, 02:21 PM
  4. What would be best video format to stream to Philips?
    By JethroUK in forum TV: Streaming & Network
    Replies: 1
    Last Post: 01-02-2012, 03:31 PM
  5. Project SHE: Simple HbbTV Editor
    By smart in forum Smart TV: User Interface
    Replies: 1
    Last Post: 08-29-2011, 07:12 PM

Tags for this Topic

Bookmarks

Posting Permissions

  • You may not post new threads
  • You may not post replies
  • You may not post attachments
  • You may not edit your posts
  •