Quote Originally Posted by Toengel View Post
Hi,

does the audio contain DTS? Then it is also not supported...

Toengel@Alex
Interesting it is that i have few mkv's with DTS audio and they played normaly. Here is MediaInfo output from mkv that is played perfectly via usb from the same external drive as the previous file that is not played at all.

MediaInfo output from OK played file:

General
Unique ID : 205485543092892631612449197947248947994 (0x9A9713788BA27DF2A6F096DB330BB31A)
Complete name : T:\Pirates.Of.The.Caribbean.On.Stranger.Tides.3D.H-SBS.Eng.DTS.3D4U.EX-3DBlurayISOTeam.mkv
Format : Matroska
Format version : Version 2
File size : 12.6 GiB
Duration : 2h 16mn
Overall bit rate : 13.3 Mbps
Movie name : Pirates of The Caribbean On Stranger Tides 3D - 3D4U
Encoded date : UTC 2011-08-24 13:52:37
Writing application : mkvmerge v4.9.1 ('Ich will') built on Jul 11 2011 23:53:15
Writing library : libebml v1.2.1 + libmatroska v1.1.1

Video
ID : 1
Format : AVC
Format/Info : Advanced Video Codec
Format profile : High@L4.1
Format settings, CABAC : Yes
Format settings, ReFrames : 2 frames
Codec ID : V_MPEG4/ISO/AVC
Duration : 2h 16mn
Bit rate : 11.5 Mbps
Width : 1 920 pixels
Height : 1 080 pixels
Display aspect ratio : 16:9
Frame rate : 23.976 fps
Color space : YUV
Chroma subsampling : 4:2:0
Bit depth : 8 bits
Scan type : Progressive
Bits/(Pixel*Frame) : 0.231
Stream size : 11.0 GiB (87%)
Writing library : x264 core
Language : English
Color primaries : BT.709-5, BT.1361, IEC 61966-2-4, SMPTE RP177
Transfer characteristics : BT.709-5, BT.1361
Matrix coefficients : BT.709-5, BT.1361, IEC 61966-2-4 709, SMPTE RP177

Audio
ID : 2
Format : DTS
Format/Info : Digital Theater Systems
Codec ID : A_DTS
Duration : 2h 16mn
Bit rate mode : Constant
Bit rate : 1 510 Kbps
Channel(s) : 6 channels
Channel positions : Front: L C R, Side: L R, LFE
Sampling rate : 48.0 KHz
Bit depth : 24 bits
Compression mode : Lossy
Stream size : 1.44 GiB (11%)
Language : English


As you can see, audio is DTS and profile is the same High@L4.1 and the file is played perfectly.

Tnx in advance.