Results 1 to 8 of 8
  • Topic Tools
  • Display
  • Bookmark and Share
  1. #1
    New Member
    Points: 663, Level: 6
    Level completed: 57%, Points required for next Level: 87
    Overall activity: 0%
    Achievements:
    3 months registered500 Experience PointsNew Achievement!

    Join Date
    Mar 2012
    Location
    PENANG/MALAYSIA
    Posts
    5
    Points
    663
    Level
    6
    Thanks
    0
    Thanked 0 Times in 0 Posts
    Rep Power
    0

    Browse PC problem

    Hi I am 40PFL6606H/12 user, and i am facing problem playing video from my PC. Below is my video details: I guess my TV suppose able to support it.

    Video:
    Length: 00:57:18
    Frame width: 1920
    Frame Height: 1080
    Data rate : 24000kbps
    Total bitrate : 24128kbps
    Frame rate : 29 frames/second

    Audio
    Bit rate 128kbps
    Channels: 2(stereo)
    Audio sample rate 48kHz

    file size: 4.82 GB

    Will file size effect the function? as i have no problem with other videos with same specifications, but shorter length and smaller file size.

    Anyone can advice what should i do?

    Thanks

  2. #2
    Diamond Member
    Points: 51,912, Level: 70
    Level completed: 55%, Points required for next Level: 638
    Overall activity: 100.0%
    Achievements:
    Recommendation Second ClassTagger First ClassOverdrive1000 Experience PointsNew Achievement!
    Awards:
    Posting Award

    Join Date
    Oct 2010
    Posts
    6,059
    Points
    51,912
    Level
    70
    Thanks
    157
    Thanked 176 Times in 157 Posts
    Rep Power
    10
    Hi,

    please you the tool "mediainfo" and post the information of your movie (the output includes much more information).

    Also, which DLNA server is running on your PC?

    Toengel@Alex

  3. #3
    New Member
    Points: 663, Level: 6
    Level completed: 57%, Points required for next Level: 87
    Overall activity: 0%
    Achievements:
    3 months registered500 Experience PointsNew Achievement!

    Join Date
    Mar 2012
    Location
    PENANG/MALAYSIA
    Posts
    5
    Points
    663
    Level
    6
    Thanks
    0
    Thanked 0 Times in 0 Posts
    Rep Power
    0
    Hi Alex:

    General
    Complete name : \\ITTECHRESEARCH\Users\Public\Videos\Sample Videos\Memorable moments HD.wmv
    Format : Windows Media
    File size : 4.82 GiB
    Duration : 57mn 18s
    Overall bit rate mode : Constant
    Overall bit rate : 12.0 Mbps
    Maximum Overall bit rate : 24.3 Mbps
    Encoded date : UTC 2012-01-15 05:12:12.242

    Video
    ID : 1
    Format : VC-1
    Format profile : MP
    Codec ID : WMV3
    Codec ID/Info : Windows Media Video 9
    Codec ID/Hint : WMV3
    Description of the codec : Windows Media Video 9 - Professional
    Duration : 57mn 18s
    Bit rate mode : Constant
    Bit rate : 24.0 Mbps
    Width : 1 920 pixels
    Height : 1 080 pixels
    Display aspect ratio : 16:9
    Frame rate : 29.970 fps
    Bit depth : 8 bits
    Scan type : Progressive
    Compression mode : Lossy
    Bits/(Pixel*Frame) : 0.386
    Stream size : 9.61 GiB

    Audio
    ID : 2
    Format : WMA
    Format profile : Pro
    Codec ID : 162
    Codec ID/Info : Windows Media Audio
    Description of the codec : Windows Media Audio 10 Professional - 128 kbps, 48 kHz, 2 channel 16 bit (A/V) 1-pass CBR
    Duration : 57mn 18s
    Bit rate mode : Constant
    Bit rate : 128 Kbps
    Channel(s) : 2 channels
    Sampling rate : 48.0 KHz
    Bit depth : 16 bits
    Stream size : 52.5 MiB (1%)

    I use Window Media Player 12

    Thanks

  4. #4
    New Member
    Points: 663, Level: 6
    Level completed: 57%, Points required for next Level: 87
    Overall activity: 0%
    Achievements:
    3 months registered500 Experience PointsNew Achievement!

    Join Date
    Mar 2012
    Location
    PENANG/MALAYSIA
    Posts
    5
    Points
    663
    Level
    6
    Thanks
    0
    Thanked 0 Times in 0 Posts
    Rep Power
    0
    FYI, I have no problem with below video:

    General
    Complete name : \\ITTECHRESEARCH\Users\Public\Videos\Sample Videos\Mywedding preview HD.wmv
    Format : Windows Media
    File size : 317 MiB
    Duration : 2mn 50s
    Overall bit rate mode : Constant
    Overall bit rate : 15.6 Mbps
    Maximum Overall bit rate : 24.2 Mbps
    Encoded date : UTC 2012-03-05 06:32:04.958 / UTC 2101-05-26 21:30:40
    MediaFoundationVersion : 2.112

    Video
    ID : 2
    Format : VC-1
    Format profile : MP
    Codec ID : WMV3
    Codec ID/Info : Windows Media Video 9
    Codec ID/Hint : WMV3
    Description of the codec : Windows Media Video 9 - Professional
    Duration : 2mn 50s
    Bit rate mode : Constant
    Bit rate : 24.0 Mbps
    Width : 1 920 pixels
    Height : 1 080 pixels
    Display aspect ratio : 16:9
    Frame rate : 29.970 fps
    Bit depth : 8 bits
    Scan type : Progressive
    Compression mode : Lossy
    Bits/(Pixel*Frame) : 0.386
    Stream size : 488 MiB

    Audio
    ID : 1
    Format : WMA
    Format version : Version 2
    Codec ID : 161
    Codec ID/Info : Windows Media Audio
    Description of the codec : Windows Media Audio 9.2 - 192 kbps, 48 kHz, stereo (A/V) 1-pass CBR
    Duration : 2mn 50s
    Bit rate mode : Constant
    Bit rate : 192 Kbps
    Channel(s) : 2 channels
    Sampling rate : 48.0 KHz
    Bit depth : 16 bits
    Stream size : 3.91 MiB (1%)

    It looks same details except file size and video length...

  5. #5
    New Member
    Points: 663, Level: 6
    Level completed: 57%, Points required for next Level: 87
    Overall activity: 0%
    Achievements:
    3 months registered500 Experience PointsNew Achievement!

    Join Date
    Mar 2012
    Location
    PENANG/MALAYSIA
    Posts
    5
    Points
    663
    Level
    6
    Thanks
    0
    Thanked 0 Times in 0 Posts
    Rep Power
    0
    Sorry, i forgot to tell, there is dialogue box " file can not be read or found "

  6. #6
    Platinum Member
    Points: 4,691, Level: 20
    Level completed: 11%, Points required for next Level: 359
    Overall activity: 7.0%
    Achievements:
    1 year registeredTagger Second Class1000 Experience PointsNew Achievement!

    Join Date
    Sep 2010
    Location
    Athens/Greece
    Posts
    640
    Points
    4,691
    Level
    20
    Thanks
    0
    Thanked 2 Times in 2 Posts
    Rep Power
    4
    Which program are you using to stream the files?
    Does the TV supports the involved codecs, or is the program transcoding the files on the fly?

  7. #7
    New Member
    Points: 663, Level: 6
    Level completed: 57%, Points required for next Level: 87
    Overall activity: 0%
    Achievements:
    3 months registered500 Experience PointsNew Achievement!

    Join Date
    Mar 2012
    Location
    PENANG/MALAYSIA
    Posts
    5
    Points
    663
    Level
    6
    Thanks
    0
    Thanked 0 Times in 0 Posts
    Rep Power
    0
    I am using Window media player... from below article, it looks like problem of duration....

    http://realmike.org/blog/2011/02/09/...a-on-gnulinux/

    any recommended DLNA server that may can solve this problem?

  8. #8
    Moderator
    Points: 17,624, Level: 40
    Level completed: 47%, Points required for next Level: 426
    Overall activity: 99.6%
    Achievements:
    1000 Experience PointsNew Achievement!10000 Experience PointsVeteran
    Philips - Thomas's Avatar
    Join Date
    Jun 2011
    Posts
    1,765
    Points
    17,624
    Level
    40
    Thanks
    2
    Thanked 39 Times in 36 Posts
    Rep Power
    10
    Hi

    try the Twonky Server. Its 30 Days Trial for free.

    Regards
    Thomas

Similar Topics

  1. 32PFL4606H/58 problem with PC conection
    By shrink in forum TV: Streaming & Network
    Replies: 1
    Last Post: 02-23-2012, 08:29 AM
  2. can wath movies from Browse Pc
    By bahadir in forum TV: Streaming & Network
    Replies: 1
    Last Post: 02-19-2012, 08:04 PM
  3. Browse PC: New files not seen straight away!
    By Peter Walker in forum TV: Streaming & Network
    Replies: 2
    Last Post: 11-28-2011, 10:03 AM
  4. 46PFL9705H Streaming and "Browse PC" problems
    By Amired in forum TV: Streaming & Network
    Replies: 7
    Last Post: 04-27-2011, 09:12 AM
  5. Fast forward when I browse my PC
    By sosoro in forum TV: Streaming & Network
    Replies: 2
    Last Post: 12-26-2010, 08:40 AM

Bookmarks

Posting Permissions

  • You may not post new threads
  • You may not post replies
  • You may not post attachments
  • You may not edit your posts
  •