Results 1 to 6 of 6
  • Topic Tools
  • Display
  • Bookmark and Share
  1. #1
    New Member
    Points: 595, Level: 6
    Level completed: 23%, Points required for next Level: 155
    Overall activity: 0%
    Achievements:
    3 months registered500 Experience PointsNew Achievement!

    Join Date
    Apr 2012
    Location
    Tallinn/Estonia
    Posts
    3
    Points
    595
    Level
    6
    Thanks
    0
    Thanked 0 Times in 0 Posts
    Rep Power
    0

    JPG images not shown in 42pfl6606h

    I tried to view JPG images that were stored in my USB stick, but I got the same error: "Unable to read..." for all of them.
    I also tried to view WMV format video (1920x1080, 64kbps bit rate, 30 frames/sec) that I had made, but got the same result.
    Only when I converted it into MP4 was it shown, but the video quality was really bad - maybe because of the freeware converted I used.

    Before trying all this I had downloaded the latest updates that were prompted.

    What am I missing here? I thought that JPG is so basic format that it should work from the box in year 2012?
    Last edited by rihoe; 04-07-2012 at 07:32 PM. Reason: wrong model in title

  2. #2
    Moderator
    Points: 20,566, Level: 43
    Level completed: 80%, Points required for next Level: 184
    Overall activity: 99.4%
    Achievements:
    1000 Experience PointsNew Achievement!10000 Experience PointsVeteran
    Philips - Thomas's Avatar
    Join Date
    Jun 2011
    Posts
    1,921
    Points
    20,566
    Level
    43
    Thanks
    8
    Thanked 48 Times in 43 Posts
    Rep Power
    10
    Hi

    please analyze one of the WMV Videos with the tool "mediainfo" and attach one of the pictures so we can analyze this.

    Thanks
    Thomas

  3. #3
    New Member
    Points: 595, Level: 6
    Level completed: 23%, Points required for next Level: 155
    Overall activity: 0%
    Achievements:
    3 months registered500 Experience PointsNew Achievement!

    Join Date
    Apr 2012
    Location
    Tallinn/Estonia
    Posts
    3
    Points
    595
    Level
    6
    Thanks
    0
    Thanked 0 Times in 0 Posts
    Rep Power
    0
    Images show OK when shown from computer, but give error when viewing them from USB stick.


    Video analysis:
    General
    Complete name : C:\Users\DELL\Pictures\Picasa\Movies\Mammi.wmv
    Format : Windows Media
    File size : 153 MiB
    Duration : 1mn 55s
    Overall bit rate mode : Variable
    Overall bit rate : 11.1 Mbps
    Maximum Overall bit rate : 11.6 Mbps
    Encoded date : UTC 2012-04-03 19:46:18.170

    Video
    ID : 2
    Format : WMV2
    Codec ID : WMV2
    Codec ID/Info : Windows Media Video 8
    Description of the codec : Windows Media Video V8
    Duration : 1mn 55s
    Bit rate mode : Variable
    Bit rate : 10.8 Mbps
    Width : 1 920 pixels
    Height : 1 080 pixels
    Display aspect ratio : 16:9
    Frame rate : 30.000 fps
    Bit depth : 8 bits
    Bits/(Pixel*Frame) : 0.174
    Stream size : 149 MiB (97%)
    Language : Estonian

    Audio
    ID : 1
    Format : WMA
    Format version : Version 2
    Codec ID : 161
    Codec ID/Info : Windows Media Audio
    Description of the codec : Windows Media Audio 9.2 - 64 kbps, 44 kHz, stereo (A/V) 1-pass CBR
    Duration : 1mn 55s
    Bit rate mode : Constant
    Bit rate : 64.0 Kbps
    Channel(s) : 2 channels
    Sampling rate : 44.1 KHz
    Bit depth : 16 bits
    Stream size : 901 KiB (1%)
    Language : Estonian
    Click image for larger version. 

Name:	L-Ameerika247.jpg 
Views:	73 
Size:	341.9 KB 
ID:	1000

  4. #4
    Moderator
    Points: 20,566, Level: 43
    Level completed: 80%, Points required for next Level: 184
    Overall activity: 99.4%
    Achievements:
    1000 Experience PointsNew Achievement!10000 Experience PointsVeteran
    Philips - Thomas's Avatar
    Join Date
    Jun 2011
    Posts
    1,921
    Points
    20,566
    Level
    43
    Thanks
    8
    Thanked 48 Times in 43 Posts
    Rep Power
    10
    Hi

    for the WMV File i have to say that we don't support HD Resolutions in this container.
    If you reduce the Resolution to f.e. 720*576 it should work.

    The JPG Image however does work perfectly over here.
    Please use the Image attached in here (right click > save as) and try it again.

    Thanks
    Thomas

  5. #5
    New Member
    Points: 595, Level: 6
    Level completed: 23%, Points required for next Level: 155
    Overall activity: 0%
    Achievements:
    3 months registered500 Experience PointsNew Achievement!

    Join Date
    Apr 2012
    Location
    Tallinn/Estonia
    Posts
    3
    Points
    595
    Level
    6
    Thanks
    0
    Thanked 0 Times in 0 Posts
    Rep Power
    0
    Hi and thanks for reply!
    I don't see any pictures attached - or did you mean your Avatar?
    Did you try the image from USB stick or sent to TV from PC? Later case worked for me also, but not from USB stick.

    About Video - I intentionally set it to be HD - otherwise what is thepoint of having HD TV. Or are HD videos actually not supported?

  6. #6
    Moderator
    Points: 20,566, Level: 43
    Level completed: 80%, Points required for next Level: 184
    Overall activity: 99.4%
    Achievements:
    1000 Experience PointsNew Achievement!10000 Experience PointsVeteran
    Philips - Thomas's Avatar
    Join Date
    Jun 2011
    Posts
    1,921
    Points
    20,566
    Level
    43
    Thanks
    8
    Thanked 48 Times in 43 Posts
    Rep Power
    10
    Hi

    I'm talking about your post and the image you have attached here.
    About the Video, we support HD (f.e. mkv) but not on WMV Files.

    Regards
    Thomas

Similar Topics

  1. Replies: 5
    Last Post: 01-09-2012, 09:38 AM
  2. JPG not displayed
    By philipsuser in forum TV: Streaming & Network
    Replies: 9
    Last Post: 12-13-2011, 12:28 PM
  3. Uploading attachments & images
    By Philips - Cassandra in forum General Forum Discussions
    Replies: 0
    Last Post: 10-17-2011, 09:13 AM
  4. JPG- Images Crossed Out Every Eight
    By Jomsp in forum TV: Streaming & Network
    Replies: 1
    Last Post: 07-28-2011, 12:02 PM
  5. Photos (*jpg) from HDD
    By Pi3,14 in forum TV: Streaming & Network
    Replies: 6
    Last Post: 06-27-2011, 08:38 PM

Tags for this Topic

Bookmarks

Posting Permissions

  • You may not post new threads
  • You may not post replies
  • You may not post attachments
  • You may not edit your posts
  •