For the last 3 days I have tried to encode or render video files to use on my new tv.

Every file I highlight in the TV menu shows Format not supported, and when I try to selected it at the bottom of the TV screen it gives me a message that reads.

Format not supported
Supported format: motion jpeg, 320 x 240, 30 fps


I have tried at least 20 different encoding of movies in the .AVI format (the included manual showed .AVI as the only supported video type.)
No matter what I do, I can't play a movie.

I have searched the sites, and have found little on my model of TV, if I have missed the answer, tell me where it is.

Any help would be appreciated.

Current Software/Firmware? on the TV shows to be TVNB013_00_PF_XX91_AA.

The mediainfo for the last video I tried to encode is

General
Complete name : Project.avi
Format : AVI
Format/Info : Audio Video Interleave
File size : 36.9 MiB
Duration : 5mn 5s
Overall bit rate : 1 015 Kbps

Video
ID : 0
Format : JPEG
Codec ID : MJPG
Duration : 5mn 5s
Bit rate : 873 Kbps
Width : 320 pixels
Height : 240 pixels
Display aspect ratio : 4:3
Frame rate : 30.000 fps
Color space : YUV
Bit depth : 8 bits
Compression mode : Lossy
Bits/(Pixel*Frame) : 0.379
Stream size : 31.8 MiB (86%)

Audio
ID : 1
Format : AAC
Format/Info : Advanced Audio Codec
Format profile : LC
Codec ID : FF
Duration : 5mn 5s
Bit rate : 128 Kbps
Channel(s) : 2 channels
Channel positions : Front: L R
Sampling rate : 44.1 KHz
Compression mode : Lossy
Stream size : 4.66 MiB (13%)
Alignment : Split accross interleaves
Interleave, duration : 23 ms (0.70 video frame)
Interleave, preload duration : 510 ms