TV: 32PDL7906T/12 Q5551-0.14.98.0

File details
Video: MPEG4 Video (H264) 1920x1080 29.97fps [Video]
Audio: Dolby AC3 44100Hz stereo 1411kbps [Audio]

Side-by-side 3D. 2D playback is fine.

When selecting Adjust / 3D-side by side the playback freezes and then the TV shuts down and restarts. Is this a known issue?

Technical details
Video
ID : 1
Format : AVC
Format/Info : Advanced Video Codec
Format profile : Baseline@L1.3
Format settings, CABAC : No
Format settings, ReFrames : 1 frame
Format settings, GOP : M=1, N=12
Codec ID : V_MPEG4/ISO/AVC
Duration : 4mn 38s
Bit rate : 7 784 Kbps
Width : 1920 pixels
Height : 1080 pixels
Display aspect ratio : 16:9
Frame rate : 29.970 fps
Color space : YUV
Chroma subsampling : 4:2:0
Bit depth : 8 bits
Scan type : Progressive
Bits/(Pixel*Frame) : 0.125
Stream size : 259 MiB (97%)
Default : Yes
Forced : No

Audio
ID : 2
Format : AC-3
Format/Info : Audio Coding 3
Mode extension : CM (complete main)
Codec ID : A_AC3
Duration : 4mn 38s
Bit rate mode : Constant
Bit rate : 64.0 Kbps
Channel(s) : 2 channels
Channel positions : Front: L R
Sampling rate : 44.1 KHz
Bit depth : 16 bits
Compression mode : Lossy
Stream size : 2.13 MiB (1%)
Default : Yes
Forced : No