Page 2 of 2 FirstFirst 12
Results 16 to 17 of 17
  • Topic Tools
  • Display
  • Bookmark and Share
  1. #16
    New Member
    Points: 41, Level: 1
    Level completed: 82%, Points required for next Level: 9
    Overall activity: 0%
    Achievements:
    New Achievement!

    Join Date
    Dec 2012
    Location
    The Netherlands
    Posts
    2
    Points
    41
    Level
    1
    Thanks
    0
    Thanked 0 Times in 0 Posts
    Rep Power
    0
    Quote Originally Posted by llandaff View Post
    I tried to play several mp4 files using DLNA from my NAS. The smaller ones play fine (<100MB?), the "bigger" (500-800 MB) ones do not. The TV gives the error that the both video and audio codec are not supported. Which isn't true... When i play the same file using an usb-stick there is no problem.
    I also have the same problem. And it's also dissapointing that my 24PFL3507H/12 doesn't keep aspect ratio on movie media on zoom. I have to recode movies to the exact 16:9 aspect ratio of the tv or the movie image is deformed.

    Plz help.

    I use Microsoft MediaPlayer12, Windows7 x64.
    Media info of a file working on usb but not dlna on this tv. (Working thru dlna on my Samsung GS2, AllShare.)

    Format : MPEG-4
    Format profile : Base Media / Version 2
    Codec ID : mp42
    File size : 1.07 GiB
    Duration : 1h 34mn
    Overall bit rate mode : Variable
    Overall bit rate : 1 631 Kbps
    Encoded date : UTC 2012-12-15 10:12:41
    Tagged date : UTC 2012-12-15 10:12:48
    Writing application : mp4creator 1.4.4

    Video
    ID : 1
    Format : AVC
    Format/Info : Advanced Video Codec
    Format profile : Baseline@L1.3
    Format settings, CABAC : No
    Format settings, ReFrames : 2 frames
    Codec ID : avc1
    Codec ID/Info : Advanced Video Coding
    Duration : 1h 34mn
    Bit rate mode : Variable
    Bit rate : 1 503 Kbps
    Width : 800 pixels
    Height : 480 pixels
    Display aspect ratio : 1.667
    Original display aspect ratio : 1.677
    Frame rate mode : Constant
    Frame rate : 30.000 fps
    Color space : YUV
    Chroma subsampling : 4:2:0
    Bit depth : 8 bits
    Scan type : Progressive
    Bits/(Pixel*Frame) : 0.130
    Stream size : 1 012 MiB (92%)
    Language : English
    Encoded date : UTC 2012-12-15 10:12:41
    Tagged date : UTC 2012-12-15 10:12:47

    Audio
    ID : 2
    Format : AAC
    Format/Info : Advanced Audio Codec
    Format profile : LC
    Codec ID : 40
    Duration : 1h 34mn
    Bit rate mode : Variable
    Bit rate : 125 Kbps
    Maximum bit rate : 216 Kbps
    Channel(s) : 2 channels
    Channel positions : Front: L R
    Sampling rate : 48.0 KHz
    Compression mode : Lossy
    Stream size : 84.4 MiB (8%)
    Language : English
    Encoded date : UTC 2012-12-15 10:12:47
    Tagged date : UTC 2012-12-15 10:12:4

  2. #17
    Moderator
    Points: 9,766, Level: 29
    Level completed: 70%, Points required for next Level: 184
    Overall activity: 0%
    Achievements:
    Tagger Second Class5000 Experience Points1000 Experience PointsNew Achievement!Overdrive
    Philips - Benedickte's Avatar
    Join Date
    May 2012
    Posts
    1,015
    Points
    9,766
    Level
    29
    Thanks
    1
    Thanked 18 Times in 16 Posts
    Rep Power
    10
    Hi All.

    I have got got some answers from the developement regarding this. The set cannot support the mp4 file under DLNA as the index file is more than 1M due to the IC memory size is limited.

    Best regards,
    Benedickte
    Forum Mod

Page 2 of 2 FirstFirst 12

Similar Topics

  1. BDP5100/12: "Character set" option for subs missing while playing mp4 videos
    By stoyan89 in forum Blu-ray: BDP5000 & 6000 Series
    Replies: 1
    Last Post: 08-28-2012, 04:04 PM
  2. Problem with DHCP 24pfl3507h/12
    By saint056a in forum TV: Streaming & Network
    Replies: 5
    Last Post: 08-06-2012, 07:28 PM
  3. MP4 files will not play on BDP5200/12 from DLNA server or USB drive
    By TommyBoy in forum Blu-ray: BDP5000 & 6000 Series
    Replies: 4
    Last Post: 06-12-2012, 07:27 PM
  4. self created .mp4 movie >4Gb not playing, <4Gb is playing
    By DannyV in forum TV: Streaming & Network
    Replies: 4
    Last Post: 06-08-2012, 09:52 AM
  5. 42PDL7906h/12 - Playing Side-By-Side mkv-files
    By Prince Skeleth in forum TV: 3D
    Replies: 10
    Last Post: 04-11-2012, 07:43 PM

Bookmarks

Posting Permissions

  • You may not post new threads
  • You may not post replies
  • You may not post attachments
  • You may not edit your posts
  •